[ed2k] Cavalcada de Reis 2019 (Vilanova i la Geltrú)

Còmics, llibres, jocs, etc.

Moderador: Petiso

Respon
Avatar de l’usuari

Autor del tema
r5004
Entrades: 13414
Membre des de: dc. nov. 01, 2006 8:08
Status: Desconnectat

[ed2k] Cavalcada de Reis 2019 (Vilanova i la Geltrú)

#1

Entrada Autor: r5004 » dl. gen. 07, 2019 19:21

Cavalcada de Reis 2019 (Vilanova i la Geltrú)

Imatge

Imatge
Ester Bertran i Eloi Cordomí seran els encarregats d'explicar tot el que passarà pels carrers de la capital del Garraf aquesta nit màgica.
Els súpers podran mirar la cavalcada de Reis per la tele al Super3 i a TV3 aquest dissabte 5 de gener, a partir de les 19.30. La transmissió es farà al pas de Ses Majestats per Vilanova i la Geltrú i la presentaran la reportera Ester Bertran i el meteoròleg Eloi Cordomí, que es troben sovint al programa "Tot es mou". Els vilanovins, coneguts col·loquialment com a "llunàtics", per la llegenda de "La lluna en un cove", rebran la visita d'un autèntic nadiu de la Lluna, que no és cap altre que el Biri Biri. Tant ell com altres membres de la Família del Super3 ajudaran l'Eloi i l'Ester durant el programa. A més, diferents personatges coneguts pel públic de TV3 faran arribar els seus missatges dels records més divertits, emocionants i curiosos de la nit de Reis. Així els Òscars, Dalmau i Andreu, Toni Cruanyes i Laia Ferrer, entre molts d'altres, explicaran les seves anècdotes més divertides d'aquesta nit màgica.
Dades de la publicació:
Vídeo DVBrip XviD 704x384 a 1550 Kbits/s Qf=0.235 (50% del test de compressibilitat)
Àudio DVBrip Mp3 128kbits/s Abr Estèreo
Arxiu de 974 Megues (1021444158 bytes)
1 hora, 20 minuts i 58 segons
Hash Md5: ebcac94b6772300fcf960bd72521bc71
MediaInfo
General
Complete name : D:\Cavalcada reis 19\Cavalcada de Reis 05.01.2019 (DVBrip per r5004)(TotsRucs.cat).avi
Format : AVI
Format/Info : Audio Video Interleave
File size : 974 MiB
Duration : 1 h 20 min
Overall bit rate mode : Variable
Overall bit rate : 1 682 kb/s

Video
ID : 0
Format : MPEG-4 Visual
Format profile : Advanced Simple@L5
Format settings, BVOP : 2
Format settings, QPel : No
Format settings, GMC : No warppoints
Format settings, Matrix : Default (H.263)
Codec ID : XVID
Codec ID/Hint : XviD
Duration : 1 h 20 min
Bit rate : 1 549 kb/s
Width : 704 pixels
Height : 384 pixels
Display aspect ratio : 1.85:1
Frame rate : 25.000 FPS
Color space : YUV
Chroma subsampling : 4:2:0
Bit depth : 8 bits
Scan type : Progressive
Compression mode : Lossy
Bits/(Pixel*Frame) : 0.229
Stream size : 897 MiB (92%)
Writing library : XviD 67

Audio
ID : 1
Format : MPEG Audio
Format version : Version 1
Format profile : Layer 3
Mode : Joint stereo
Mode extension : MS Stereo
Codec ID : 55
Codec ID/Hint : MP3
Duration : 1 h 20 min
Bit rate mode : Variable
Bit rate : 121 kb/s
Channel(s) : 2 channels
Sampling rate : 48.0 kHz
Compression mode : Lossy
Stream size : 69.9 MiB (7%)
Alignment : Aligned on interleaves
Interleave, duration : 24 ms (0.60 video frame)
Interleave, preload duration : 70 ms
Title : cat
Writing library : LAME3.100ª


"Hi ha gent a qui no li agrada que es parle, s'escriga o es pense en català. És la mateixa gent a qui no li agrada que es parle, s'escriga o es pense."
Imatge


Sergi-
Entrades: 71
Membre des de: dv. des. 19, 2008 9:48
Status: Desconnectat

Re: [ed2k] Cavalcada de Reis 2019 (Vilanova i la Geltrú)

#2

Entrada Autor: Sergi- » dl. gen. 07, 2019 22:18

Moltes gràcies r5004! :wink:

Respon