[ed2k] Piromusical de la Mercè 2018 (24.09.18)

Còmics, llibres, jocs, etc.

Moderador: Petiso

Respon
Avatar de l’usuari

Autor del tema
r5004
Entrades: 13008
Membre des de: dc. nov. 01, 2006 8:08
Status: Desconnectat

[ed2k] Piromusical de la Mercè 2018 (24.09.18)

#1

Entrada Autor: r5004 » dg. set. 30, 2018 5:51

Piromusical de la Mercè 2018 (24.09.18)

Imatge

Imatge
ccma.cat ha escrit:Un any més, l'avinguda Reina Maria Cristina de la capital catalana s'omplirà per acomiadar la festa major de la ciutat amb el Piromusical de la Mercè. TV3 emetrà l'espectacle amb els comentaris de Laia Ferrer. Aquest any l'espectacle de focs, llum i música oferirà fados i altres cançons portugueses, perquè Lisboa és la ciutat convidada de les festes. També s'hi podran sentir temes inspirats en els moviments socials, polítics i estudiantils de l'any 1968, el millor jazz de què ha gaudit Barcelona en 50 anys i d'un combinat de la música pop que passarà pels escenaris de la Mercè. El Piromusical d'enguany també repassarà l'obra de Leonard Bernstein, quan es compleixen 100 anys del seu naixement, i tindrà un moment per recordar la reina del soul, Aretha Franklin i el DJ suec, Avicii, morts recentment.
Dades de la publicació:
Vídeo HDTVrip x264 1280x720 a 3772 Kbits/s Qf=0.164 (Crf=19)
Àudio HDTV Mp2 192kbits/s Estèreo (sense re-compressió)
Arxiu de 1,02 Gigues (1096767049 bytes)
36 minuts i 52 segons
Hash Md5: 29fdb0abff9c7c97a1d057be9cf914b4
MediaInfo
General
Unique ID : 53684007906805814124482257065321992005 (0x286329F12C0D36E0807A49A5F7208F45)
Complete name : D:\Piromusical 2018\Piromusical de la Mercè 2018 (24.09.18) (HDTVrip 720p català per naroatna i r5004) (TotsRucs.cat).mkv
Format : Matroska
Format version : Version 2
File size : 1.02 GiB
Duration : 36 min 52 s
Overall bit rate : 3 966 kb/s
Encoded date : UTC 2018-09-25 17:51:23
Writing application : mkvmerge v26.0.0 ('In The Game') 64-bit
Writing library : libebml v1.3.6 + libmatroska v1.4.9

Video
ID : 1
Format : AVC
Format/Info : Advanced Video Codec
Format profile : High@L4.1
Format settings, CABAC : Yes
Format settings, RefFrames : 8 frames
Codec ID : V_MPEG4/ISO/AVC
Duration : 36 min 52 s
Bit rate : 3 772 kb/s
Width : 1 280 pixels
Height : 720 pixels
Display aspect ratio : 16:9
Frame rate mode : Constant
Frame rate : 25.000 FPS
Color space : YUV
Chroma subsampling : 4:2:0
Bit depth : 8 bits
Scan type : Progressive
Bits/(Pixel*Frame) : 0.164
Stream size : 995 MiB (95%)
Writing library : x264 core 155 r2901 7d0ff22
Encoding settings : cabac=1 / ref=8 / deblock=1:-1:-1 / analyse=0x3:0x133 / me=umh / subme=9 / psy=1 / psy_rd=1.00:0.15 / mixed_ref=1 / me_range=16 / chroma_me=1 / trellis=2 / 8x8dct=1 / cqm=0 / deadzone=21,11 / fast_pskip=1 / chroma_qp_offset=-3 / threads=12 / lookahead_threads=1 / sliced_threads=0 / nr=0 / decimate=1 / interlaced=0 / bluray_compat=0 / constrained_intra=0 / bframes=3 / b_pyramid=2 / b_adapt=2 / b_bias=0 / direct=3 / weightb=1 / open_gop=0 / weightp=2 / keyint=250 / keyint_min=25 / scenecut=40 / intra_refresh=0 / rc_lookahead=60 / rc=crf / mbtree=1 / crf=19.0 / qcomp=0.60 / qpmin=0 / qpmax=69 / qpstep=4 / vbv_maxrate=62500 / vbv_bufsize=78125 / crf_max=0.0 / nal_hrd=none / filler=0 / ip_ratio=1.40 / aq=1:1.00
Default : Yes
Forced : No

Audio
ID : 2
Format : MPEG Audio
Format version : Version 1
Format profile : Layer 2
Codec ID : A_MPEG/L2
Codec ID/Hint : MP2
Duration : 36 min 52 s
Bit rate mode : Constant
Bit rate : 192 kb/s
Channel(s) : 2 channels
Sampling rate : 48.0 kHz
Frame rate : 41.667 FPS (1152 SPF)
Compression mode : Lossy
Stream size : 50.6 MiB (5%)
Language : Catalan
Default : Yes
Forced : No
:arrow: Gràcies naroatna per la captura!! :D


"Hi ha gent a qui no li agrada que es parle, s'escriga o es pense en català. És la mateixa gent a qui no li agrada que es parle, s'escriga o es pense."
Imatge

Respon