[ed2k] Astronautes. Houston, tenim un cadàver!

Còmics, llibres, jocs, etc.

Moderador: Petiso

Respon
Avatar de l’usuari

Autor del tema
r5004
Entrades: 13361
Membre des de: dc. nov. 01, 2006 8:08
Status: Desconnectat

[ed2k] Astronautes. Houston, tenim un cadàver!

#1

Entrada Autor: r5004 » ds. març 18, 2017 18:45

Astronautes. Houston, tenim un cadàver!

Imatge
Imdb

Imatge
ccma.cat ha escrit:Els tres primers astronautes a arribar a la Lluna, Armstrong, Collins i Aldrin, estan de tornada al centre espacial de la NASA a Houston, preparats per passar la quarantena, però, sorprenentment, no han tornat sols, dins de la nau ha aparegut un cadàver calcinat… Aquest és el punt d'arrencada d'"Astronautes. Houston, tenim un cadàver!".
Queco Novell (Neil Armstrong), David Olivares (Michael Collins), Mireia Portas (agent especial de la NASA) i Xavier Serrano (Buzz Aldrin), quatre dels rostres hàbilment caracteritzats habituals dels programes de TV3 "Polònia" i "Crackòvia", protagonitzen aquesta comèdia còsmica. També se'ls ha pogut veure en dues de les produccions teatrals de Minoria Absoluta: "La família irreal" i "Polònia, el musical", que també s'han emès per TV3.
Xavier Ricart s'ha encarregat de la direcció de l'espectacle. Rafel Barceló i Jordi López Casanovas, guionistes de "Polònia" i "Crackòvia", han escrit el text d'aquesta divertida comèdia.
L'enregistrament de la funció es va fer el mes de gener passat al Teatre Club Capitol de Barcelona.
ccma.cat ha escrit:Astronautes. Houston, tenim un cadàver!
Producció: Minoria Absoluta, 2017
Direcció: Xavier Ricart
Guió: Rafel Barceló i Jordi López Casanovas
Veu en off: Ivan Labanda
Repartiment: Queco Novell (Neil Armstrong), David Olivares (Michael Collins), Mireia Portas (agent de la NASA) i Xavier Serrano (Buzz Aldrin)

Els tres primers astronautes d'arribar a la lluna, Armstrong, Aldrin i Collins, estan de tornada al centre espacial de la NASA a Houston, preparats per passar la quarantena. Però, sorprenentment, no han tornat sols: dins de la nau ha aparegut un cadàver calcinat...
Dades de la publicació:
Vídeo HDTVrip x264 1280x720 a 4000 Kbits/s Qf=0,174 (68% del test de compressibilitat)
Àudio HDTVrip Ac3 128kbits/s Estèreo
Arxiu de 2,36 Gigues (2542520189 bytes)
1 hora, 22 minuts i 05 segons
Hash Md5: e37f65b3f0ec9c147d9744102a0972bb
MediaInfo
General
Unique ID : 207126915763456067276660835695109464585 (0x9BD331643C9AF41EAB433CF6F995E209)
Complete name : D:\Astronautes\Astronautes; Houston, tenim un cadàver! (HDTVrip 720p català per r5004) (TotsRucs.cat).mkv
Format : Matroska
Format version : Version 2
File size : 2.37 GiB
Duration : 1 h 22 min
Overall bit rate : 4 130 kb/s
Encoded date : UTC 2017-03-16 20:08:15
Writing application : mkvmerge v8.5.2 ('Crosses') 32bit
Writing library : libebml v1.3.3 + libmatroska v1.4.4

Video
ID : 1
Format : AVC
Format/Info : Advanced Video Codec
Format profile : High@L4.1
Format settings, CABAC : Yes
Format settings, ReFrames : 8 frames
Codec ID : V_MPEG4/ISO/AVC
Duration : 1 h 22 min
Bit rate : 4 000 kb/s
Width : 1 280 pixels
Height : 720 pixels
Display aspect ratio : 16:9
Frame rate mode : Constant
Frame rate : 25.000 FPS
Color space : YUV
Chroma subsampling : 4:2:0
Bit depth : 8 bits
Scan type : Progressive
Bits/(Pixel*Frame) : 0.174
Stream size : 2.29 GiB (97%)
Writing library : x264 core 148 r2638 7599210
Encoding settings : cabac=1 / ref=8 / deblock=1:-1:-1 / analyse=0x3:0x133 / me=umh / subme=9 / psy=1 / psy_rd=1.00:0.15 / mixed_ref=1 / me_range=16 / chroma_me=1 / trellis=2 / 8x8dct=1 / cqm=0 / deadzone=21,11 / fast_pskip=1 / chroma_qp_offset=-3 / threads=12 / lookahead_threads=1 / sliced_threads=0 / nr=0 / decimate=1 / interlaced=0 / bluray_compat=0 / constrained_intra=0 / bframes=3 / b_pyramid=2 / b_adapt=2 / b_bias=0 / direct=3 / weightb=1 / open_gop=0 / weightp=2 / keyint=250 / keyint_min=25 / scenecut=40 / intra_refresh=0 / rc_lookahead=60 / rc=2pass / mbtree=1 / bitrate=4000 / ratetol=1.0 / qcomp=0.60 / qpmin=0 / qpmax=69 / qpstep=4 / cplxblur=20.0 / qblur=0.5 / vbv_maxrate=62500 / vbv_bufsize=78125 / nal_hrd=none / filler=0 / ip_ratio=1.40 / aq=1:1.00
Language : English
Default : Yes
Forced : No

Audio
ID : 2
Format : AC-3
Format/Info : Audio Coding 3
Mode extension : CM (complete main)
Format settings, Endianness : Big
Codec ID : A_AC3
Duration : 1 h 22 min
Bit rate mode : Constant
Bit rate : 128 kb/s
Channel(s) : 2 channels
Channel positions : Front: L R
Sampling rate : 48.0 kHz
Frame rate : 31.250 FPS (1536 spf)
Bit depth : 16 bits
Compression mode : Lossy
Stream size : 75.2 MiB (3%)
Language : Catalan
Default : Yes
Forced : No


"Hi ha gent a qui no li agrada que es parle, s'escriga o es pense en català. És la mateixa gent a qui no li agrada que es parle, s'escriga o es pense."
Imatge


Suzume
Entrades: 213
Membre des de: dt. jul. 01, 2008 21:29
Status: Desconnectat

Re: [ed2k] Astronautes. Houston, tenim un cadàver!

#2

Entrada Autor: Suzume » dv. març 24, 2017 7:07

Moltes gràcies :D

Avatar de l’usuari

Adrià05
Entrades: 2112
Membre des de: dt. feb. 03, 2015 20:06
Status: Desconnectat

Re: [ed2k] Astronautes. Houston, tenim un cadàver!

#3

Entrada Autor: Adrià05 » dv. març 24, 2017 19:10

Gràcies!

Respon