[ed2k] Piromusical de la Mercè 2016 (25.09.16)

Còmics, llibres, jocs, etc.

Moderador: Petiso

Respon
Avatar de l’usuari

Autor del tema
r5004
Entrades: 13361
Membre des de: dc. nov. 01, 2006 8:08
Status: Desconnectat

[ed2k] Piromusical de la Mercè 2016 (25.09.16)

#1

Entrada Autor: r5004 » dt. set. 27, 2016 19:52

Piromusical de la Mercè 2016 (25.09.16)

Imatge

Imatge
ccma.cat ha escrit:Un any més, l'avinguda Reina Maria Cristina de la capital catalana s'omplirà per acomiadar la festa major de la ciutat amb el Piromusical de la Mercè. TV3 hi connectarà en directe, tot just quan s'acabi el "TN vespre", i emetrà l'espectacle amb els comentaris del presentador d'"Els matins" Carles Costa.

Aquest any la televisió pública catalana serà una de les protagonistes del Piromusical, que es divideix en 6 blocs. Un estarà dedicat a "La Marató" de TV3 i un altre serà un homenatge al Super3.

El bloc d'inici retrà homenatge a la "chanson" francesa, ja que la ciutat de París ha estat la convidada d'aquest any a les festes. També hi haurà un conjunt de cançons dedicades a recordar les figures de David Bowie i Prince i un altre de pop rock català.
Dades de la publicació:
Vídeo HDTVrip x264 1280x720 a 4300 Kbits/s Qf=0.187 (70% del test de compressibilitat)
Àudio HDTVrip Ac3 192kbits/s Estèreo
Arxiu de 1,12 Gigues (1208137085 bytes)
35 minuts i 51 segons
Hash Md5: 53af635a97b4e2bdfcd2f3ba243c735e
MediaInfo
General
Unique ID : 186350439576993240832462788875969539493 (0x8C31CA073FA73D89AFEA4E2FDA2AADA5)
Complete name : D:\Piromusical 2016\Piromusical de la Mercè 2016 (25.09.16) (HDTVrip 720p català per r5004) (TotsRucs.cat).mkv
Format : Matroska
Format version : Version 2
File size : 1.13 GiB
Duration : 35mn 50s
Overall bit rate : 4 494 Kbps
Encoded date : UTC 2016-09-27 16:29:15
Writing application : mkvmerge v9.4.0 ('Knurl') 32bit
Writing library : libebml v1.3.4 + libmatroska v1.4.5
DURATION : 00:35:50.688000000
NUMBER_OF_FRAMES : 67209
NUMBER_OF_BYTES : 51616512
_STATISTICS_WRITING_APP : mkvmerge v9.4.0 ('Knurl') 32bit
_STATISTICS_WRITING_DATE_UTC : 2016-09-27 16:29:15
_STATISTICS_TAGS : BPS DURATION NUMBER_OF_FRAMES NUMBER_OF_BYTES

Video
ID : 1
Format : AVC
Format/Info : Advanced Video Codec
Format profile : High@L4.1
Format settings, CABAC : Yes
Format settings, ReFrames : 4 frames
Codec ID : V_MPEG4/ISO/AVC
Duration : 35mn 50s
Bit rate : 4 300 Kbps
Width : 1 280 pixels
Height : 720 pixels
Display aspect ratio : 16:9
Frame rate mode : Constant
Frame rate : 25.000 fps
Color space : YUV
Chroma subsampling : 4:2:0
Bit depth : 8 bits
Scan type : Progressive
Bits/(Pixel*Frame) : 0.187
Stream size : 1.05 GiB (94%)
Writing library : x264 core 148 r2705 3f5ed56
Encoding settings : cabac=1 / ref=3 / deblock=1:-1:-1 / analyse=0x3:0x113 / me=hex / subme=7 / psy=1 / psy_rd=1.00:0.15 / mixed_ref=1 / me_range=16 / chroma_me=1 / trellis=1 / 8x8dct=1 / cqm=0 / deadzone=21,11 / fast_pskip=1 / chroma_qp_offset=-3 / threads=12 / lookahead_threads=2 / sliced_threads=0 / nr=0 / decimate=1 / interlaced=0 / bluray_compat=0 / constrained_intra=0 / bframes=3 / b_pyramid=2 / b_adapt=1 / b_bias=0 / direct=1 / weightb=1 / open_gop=0 / weightp=2 / keyint=250 / keyint_min=25 / scenecut=40 / intra_refresh=0 / rc_lookahead=40 / rc=2pass / mbtree=1 / bitrate=4300 / ratetol=1.0 / qcomp=0.60 / qpmin=0 / qpmax=69 / qpstep=4 / cplxblur=20.0 / qblur=0.5 / vbv_maxrate=62500 / vbv_bufsize=78125 / nal_hrd=none / filler=0 / ip_ratio=1.40 / aq=1:1.00
Language : English
Default : Yes
Forced : No
DURATION : 00:35:50.720000000
NUMBER_OF_FRAMES : 53768
NUMBER_OF_BYTES : 1156025047
_STATISTICS_WRITING_APP : mkvmerge v9.4.0 ('Knurl') 32bit
_STATISTICS_WRITING_DATE_UTC : 2016-09-27 16:29:15
_STATISTICS_TAGS : BPS DURATION NUMBER_OF_FRAMES NUMBER_OF_BYTES

Audio
ID : 2
Format : AC-3
Format/Info : Audio Coding 3
Mode extension : CM (complete main)
Format settings, Endianness : Big
Codec ID : A_AC3
Duration : 35mn 50s
Bit rate mode : Constant
Bit rate : 192 Kbps
Channel(s) : 2 channels
Channel positions : Front: L R
Sampling rate : 48.0 KHz
Compression mode : Lossy
Stream size : 49.2 MiB (4%)
Language : Catalan
Default : Yes
Forced : No


"Hi ha gent a qui no li agrada que es parle, s'escriga o es pense en català. És la mateixa gent a qui no li agrada que es parle, s'escriga o es pense."
Imatge

Respon