[ed2k] Futbol Lliga Bbva (Jornada 12 Madrid - Barça) (21-11-15)

Còmics, llibres, jocs, etc.

Moderador: Petiso

Respon
Avatar de l’usuari

Autor del tema
r5004
Entrades: 14106
Membre des de: dc. nov. 01, 2006 8:08
Status: Desconnectat

[ed2k] Futbol Lliga Bbva (Jornada 12 Madrid - Barça) (21-11-15)

#1

Entrada Autor: r5004 » dt. nov. 24, 2015 20:07

Futbol Lliga Bbva (Jornada 12 Madrid - Barça) (21-11-15)

Imatge

Imatge
Dades de la publicació:
Vídeo DVBrip Xvid 704x384 a 2350 Kbits/s Qf=0,356 (45% del test de compressibilitat)
Àudio DVBrip Mp3 128kbits/s Abr Estèreo (Català)
Arxiu de 1,77 Gigues (1908384226 bytes)
1 hora, 42 minuts i 29 segons
Hash Md5: 1d6a2dc0458ed94ba0691e9b3aa32b47
MediaInfo
General
Complete name : D:\Madrid-barça\Futbol Lliga Bbva (Jornada 12 Madrid - Barça) (21-11-15) (DVBrip català) per r5004 (totsrucs.cat).avi
Format : AVI
Format/Info : Audio Video Interleave
File size : 1.78 GiB
Duration : 1h 42mn
Overall bit rate mode : Variable
Overall bit rate : 2 483 Kbps

Video
ID : 0
Format : MPEG-4 Visual
Format profile : Advanced Simple@L5
Format settings, BVOP : 2
Format settings, QPel : No
Format settings, GMC : No warppoints
Format settings, Matrix : Default (H.263)
Codec ID : XVID
Codec ID/Hint : XviD
Duration : 1h 42mn
Bit rate : 2 348 Kbps
Width : 704 pixels
Height : 384 pixels
Display aspect ratio : 1.85:1
Frame rate : 25.000 fps
Color space : YUV
Chroma subsampling : 4:2:0
Bit depth : 8 bits
Scan type : Progressive
Compression mode : Lossy
Bits/(Pixel*Frame) : 0.347
Stream size : 1.68 GiB (95%)
Writing library : XviD 67

Audio
ID : 1
Format : MPEG Audio
Format version : Version 1
Format profile : Layer 3
Mode : Joint stereo
Mode extension : MS Stereo
Codec ID : 55
Codec ID/Hint : MP3
Duration : 1h 42mn
Bit rate mode : Variable
Bit rate : 122 Kbps
Nominal bit rate : 128 Kbps
Channel(s) : 2 channels
Sampling rate : 48.0 KHz
Compression mode : Lossy
Stream size : 89.1 MiB (5%)
Alignment : Aligned on interleaves
Interleave, duration : 24 ms (0.60 video frame)
Interleave, preload duration : 69 ms
Title : cat
Writing library : LAME3.99r
Encoding settings : -m j -V 4 -q 2 -lowpass 17 --abr 128


"Hi ha gent a qui no li agrada que es parle, s'escriga o es pense en català. És la mateixa gent a qui no li agrada que es parle, s'escriga o es pense."
Imatge

Respon