[ed2k] Històries de Palau

Documentals

Moderadors: arakelov, Petiso, Nava

Respon
Avatar de l’usuari

Autor del tema
r5004
Entrades: 13288
Membre des de: dc. nov. 01, 2006 8:08
Status: Desconnectat

[ed2k] Històries de Palau

#1

Entrada Autor: r5004 » dg. feb. 24, 2019 16:06

Històries de Palau

Imatge

Imatge
ccma.cat ha escrit:El documental "Històries de Palau" fa un retrat del palau de la Generalitat. I ho fa a través de tres eixos temàtics: el seguiment del dia a dia de les activitats dins del palau, l'arquitectura de l'edifici i la història d'una institució, la Generalitat, que ja té més de sis-cents anys. Durant unes quantes setmanes, un equip de TV3 s'ha ficat dins del palau per reflectir el dia a dia del seu funcionament. Al mateix temps, les càmeres han recorregut tots els espais arquitectònics per deixar constància dels racons d'un dels edificis gòtics i renaixentistes més brillants del país. I, finalment, acompanyats pel presentador Antoni Tortajada, els espectadors podran seguir els moments més rellevants d'una història convulsa i agitada, que ja fa més de sis-cents anys que dura.
Dades de la publicació:
Vídeo HDTVrip x264 1280x720 a 3259 Kbits/s Qf=0.141 (Crf=18)
Àudio HDTV E-Ac3 256kbits/s Estèreo (sense re-compressió)
Arxiu de 2 Gigues (2157913449 bytes)
1 hora, 21 minuts i 49 segons
Hash Md5: a438eb9d4a0fa0d2b9b8c4f653302232
MediaInfo
General
Unique ID : 256512696558718735642324019499676398310 (0xC0FA8C6020BDE0B9F2C97FC1DEAAF2E6)
Complete name : D:\Histories de Palau\Històries de Palau (HDTVrip 720p per r5004) (TotsRucs.cat).mkv
Format : Matroska
Format version : Version 2
File size : 2.01 GiB
Duration : 1 h 21 min
Overall bit rate : 3 517 kb/s
Encoded date : UTC 2019-02-11 18:16:14
Writing application : mkvmerge v29.0.0 ('Like It Or Not') 64-bit
Writing library : libebml v1.3.6 + libmatroska v1.4.9

Video
ID : 1
Format : AVC
Format/Info : Advanced Video Codec
Format profile : High@L4.1
Format settings, CABAC : Yes
Format settings, RefFrames : 8 frames
Codec ID : V_MPEG4/ISO/AVC
Duration : 1 h 21 min
Bit rate : 3 259 kb/s
Width : 1 280 pixels
Height : 720 pixels
Display aspect ratio : 16:9
Frame rate mode : Constant
Frame rate : 25.000 FPS
Color space : YUV
Chroma subsampling : 4:2:0
Bit depth : 8 bits
Scan type : Progressive
Bits/(Pixel*Frame) : 0.141
Stream size : 1.86 GiB (93%)
Writing library : x264 core 157 r2935 545de2f
Encoding settings : cabac=1 / ref=8 / deblock=1:-1:-1 / analyse=0x3:0x133 / me=umh / subme=9 / psy=1 / psy_rd=1.00:0.15 / mixed_ref=1 / me_range=16 / chroma_me=1 / trellis=2 / 8x8dct=1 / cqm=0 / deadzone=21,11 / fast_pskip=1 / chroma_qp_offset=-3 / threads=12 / lookahead_threads=1 / sliced_threads=0 / nr=0 / decimate=1 / interlaced=0 / bluray_compat=0 / constrained_intra=0 / bframes=3 / b_pyramid=2 / b_adapt=2 / b_bias=0 / direct=3 / weightb=1 / open_gop=0 / weightp=2 / keyint=250 / keyint_min=25 / scenecut=40 / intra_refresh=0 / rc_lookahead=60 / rc=crf / mbtree=1 / crf=18.0 / qcomp=0.60 / qpmin=0 / qpmax=69 / qpstep=4 / vbv_maxrate=62500 / vbv_bufsize=78125 / crf_max=0.0 / nal_hrd=none / filler=0 / ip_ratio=1.40 / aq=1:1.00
Default : Yes
Forced : No

Audio
ID : 2
Format : E-AC-3
Format/Info : Enhanced Audio Coding 3
Format settings, Endianness : Big
Codec ID : A_EAC3
Duration : 1 h 21 min
Bit rate mode : Constant
Bit rate : 256 kb/s
Channel(s) : 2 channels
Channel positions : Front: L R
Sampling rate : 48.0 kHz
Frame rate : 187.500 FPS (256 SPF)
Compression mode : Lossy
Stream size : 150 MiB (7%)
Language : Catalan
Service kind : Complete Main
Default : Yes
Forced : No


"Hi ha gent a qui no li agrada que es parle, s'escriga o es pense en català. És la mateixa gent a qui no li agrada que es parle, s'escriga o es pense."
Imatge

Respon