[ed2k] Perseguits i salvats

Documentals

Moderadors: arakelov, Petiso, Nava

Respon
Avatar de l’usuari

Autor del tema
r5004
Entrades: 12834
Membre des de: dc. nov. 01, 2006 8:08
Status: Desconnectat

[ed2k] Perseguits i salvats

#1

Entrada Autor: r5004 » dv. feb. 16, 2018 20:23

Perseguits i salvats

Imatge

Imatge
elpuntavui.tv ha escrit:Entre 1939 i 1944 prop de 10.000 jueus van arribar al país creuant el Pirineu català, fugint de la persecució nazi i el col·laboracionisme francès. Setanta-cinc anys després de l’inici d’aquell èxode, el documental Perseguits i salvats ressegueix sobre el terreny l’odissea d’aquells refugiats amb supervivents i els seus descendents. Produïda per La Xarxa i dirigida per Daniel Serra i Jaume Serra, la cinta reuneix tres generacions en els principals escenaris d’aquella travessa per rememorar, a través del propi record o del relat de familiars, una experiència vital terrible.
elpuntavui.tv ha escrit:Conversa entre la periodista Pilar Rahola, gran coneixedora de la comunitat jueva, i Paquita Sitzer, qui va creuar els Pirineus amb la seva família a l'edat de cinc anys. Un diàleg sobre el rastre que aquell episodi de la infantesa ha deixat en la seva vida i també al voltant de la necessitat de preservar la memòria històrica.
Dades de la publicació:
Vídeo DVBrip Xvid 704x384 a 1400 Kbits/s Qf=0,207 (60% del test de compressibilitat)
Àudio DVBrip Mp3 128kbits/s Abr Estèreo
820 Megues (860127682 bytes)
1 hora, 14 minuts i 46 segons
Hash Md5: 639bd7d386222a09575eb58637f2aff3
MediaInfo
General
Complete name : D:\Perseguits i salvats\Perseguits i salvats (DVBrip per r5004)(TotsRucs.cat).avi
Format : AVI
Format/Info : Audio Video Interleave
File size : 820 MiB
Duration : 1 h 14 min
Overall bit rate mode : Variable
Overall bit rate : 1 534 kb/s

Video
ID : 0
Format : MPEG-4 Visual
Format profile : Advanced Simple@L5
Format settings, BVOP : 2
Format settings, QPel : No
Format settings, GMC : No warppoints
Format settings, Matrix : Default (H.263)
Codec ID : XVID
Codec ID/Hint : XviD
Duration : 1 h 14 min
Bit rate : 1 400 kb/s
Width : 704 pixels
Height : 384 pixels
Display aspect ratio : 1.85:1
Frame rate : 25.000 FPS
Color space : YUV
Chroma subsampling : 4:2:0
Bit depth : 8 bits
Scan type : Progressive
Compression mode : Lossy
Bits/(Pixel*Frame) : 0.207
Stream size : 749 MiB (91%)
Writing library : XviD 67

Audio
ID : 1
Format : MPEG Audio
Format version : Version 1
Format profile : Layer 3
Mode : Joint stereo
Mode extension : MS Stereo
Codec ID : 55
Codec ID/Hint : MP3
Duration : 1 h 14 min
Bit rate mode : Variable
Bit rate : 121 kb/s
Channel(s) : 2 channels
Sampling rate : 48.0 kHz
Compression mode : Lossy
Stream size : 64.7 MiB (8%)
Alignment : Aligned on interleaves
Interleave, duration : 24 ms (0.60 video frame)
Interleave, preload duration : 99 ms
Title : cat
Writing library : LAME3.100ª


"Hi ha gent a qui no li agrada que es parle, s'escriga o es pense en català. És la mateixa gent a qui no li agrada que es parle, s'escriga o es pense."
Imatge

Avatar de l’usuari

Autor del tema
r5004
Entrades: 12834
Membre des de: dc. nov. 01, 2006 8:08
Status: Desconnectat

Re: [ed2k] Perseguits i salvats

#2

Entrada Autor: r5004 » dv. feb. 16, 2018 20:29

Vull afegir dues cosetes:

Al final del documental, hi he inclòs una entrevista de la Pilar Rahola.
Encara que es diguin igual (o gairebé), aquest no és el mateix documental emès al Sense Ficció 7x12.
"Hi ha gent a qui no li agrada que es parle, s'escriga o es pense en català. És la mateixa gent a qui no li agrada que es parle, s'escriga o es pense."
Imatge

Respon