[ed2k] Agustí Montal: El president de la transició

Documentals

Moderadors: arakelov, Petiso, Nava

Respon
Avatar de l’usuari

Autor del tema
r5004
Entrades: 13277
Membre des de: dc. nov. 01, 2006 8:08
Status: Desconnectat

[ed2k] Agustí Montal: El president de la transició

#1

Entrada Autor: r5004 » dl. juny 19, 2017 21:17

Agustí Montal: El president de la transició

Imatge

Imatge
Dades de la publicació:
Vídeo DVBrip Xvid 704x384 a 1200 Kbits/s Qf=0,182 (61% del test de compressibilitat)
Àudio DVBrip Mp3 128kbits/s Abr Estèreo
203 Megues (213230094 bytes)
21 minuts i 24 segons
Hash Md5: 166e7df2e14228a60b54950889879836
MediaInfo
General
Complete name : D:\Agusti montal\Agustí Montal; El president de la transició (DVBrip català) per r5004 (totsrucs.cat).avi
Format : AVI
Format/Info : Audio Video Interleave
File size : 203 MiB
Duration : 21 min 23 s
Overall bit rate mode : Variable
Overall bit rate : 1 329 kb/s

Video
ID : 0
Format : MPEG-4 Visual
Format profile : Advanced Simple@L5
Format settings, BVOP : 2
Format settings, QPel : No
Format settings, GMC : No warppoints
Format settings, Matrix : Default (H.263)
Codec ID : XVID
Codec ID/Hint : XviD
Duration : 21 min 23 s
Bit rate : 1 197 kb/s
Width : 704 pixels
Height : 384 pixels
Display aspect ratio : 1.85:1
Frame rate : 25.000 FPS
Color space : YUV
Chroma subsampling : 4:2:0
Bit depth : 8 bits
Scan type : Progressive
Compression mode : Lossy
Bits/(Pixel*Frame) : 0.177
Stream size : 183 MiB (90%)
Writing library : XviD 67

Audio
ID : 1
Format : MPEG Audio
Format version : Version 1
Format profile : Layer 3
Mode : Joint stereo
Mode extension : MS Stereo
Codec ID : 55
Codec ID/Hint : MP3
Duration : 21 min 23 s
Bit rate mode : Variable
Bit rate : 119 kb/s
Nominal bit rate : 128 kb/s
Channel(s) : 2 channels
Sampling rate : 48.0 kHz
Compression mode : Lossy
Stream size : 18.2 MiB (9%)
Alignment : Aligned on interleaves
Interleave, duration : 24 ms (0.60 video frame)
Interleave, preload duration : 187 ms
Title : cat
Writing library : LAME3.99r
Encoding settings : -m j -V 4 -q 2 -lowpass 17 --abr 128


"Hi ha gent a qui no li agrada que es parle, s'escriga o es pense en català. És la mateixa gent a qui no li agrada que es parle, s'escriga o es pense."
Imatge

Avatar de l’usuari

Adrià05
Entrades: 2044
Membre des de: dt. feb. 03, 2015 20:06
Status: Desconnectat

Re: [ed2k] Agustí Montal: El president de la transició

#2

Entrada Autor: Adrià05 » dl. juny 19, 2017 22:00

Merci!! :D

Respon