[ed2k] No apaguis mai el llum

Pel·lícules, cicles, etc.

Moderadors: Oliana, Petiso

Respon
Avatar de l’usuari

Autor del tema
r5004
Entrades: 12958
Membre des de: dc. nov. 01, 2006 8:08
Status: Desconnectat

[ed2k] No apaguis mai el llum

#1

Entrada Autor: r5004 » dg. nov. 04, 2018 10:20

No apaguis mai el llum

Imatge
Imdb

Imatge
ccma.cat ha escrit:No apaguis mai el llum
(Lights out)
Direcció: David F. Sandberg
Guió: David F. Sandberg, Eric Heisserer
Producció: New Line Cinema / RatPac-Dune Entertainment / Grey Matter Productions
Durada: 77 minuts
Any: 2016
País: Estats Units
Fotografía: Marc Spicer
Música: Benjamin Wallfisch
Intèrprets: Teresa Palmer, Maria Bello, Gabriel Bateman, Alexander DiPersia, Billy Burke,Alicia Vela-Bailey, Amiah Miller, Andi Osho, Maria Russell, Elizabeth Pan,Ava Cantrell, Rolando Boyce, Emily Alyn Lind, Lotta Losten

La Rebecca ja fa temps que fa la seva vida, aliena als problemes i les pors que va viure de petita a la casa familiar, però el retrobament amb el seu germanet, el Martin, traumatitzat per una sèrie de terrorífiques visions que l'assalten des de fa uns mesos, la porten a sospitar que la seva mare, la depressiva i turmentada Sophie, és la connexió entre ells i l'ésser esgarrifós que apareix quan s'apaguen els llums i regna la foscor.
Dades de la publicació:
Vídeo HDTVrip x264 1280x528 a 1689 Kbits/s Qf=0.100 (Crf=18) + filtre DeLogo per ocultar senyalització d'edat "16"
Àudio HDTVrip Ac3 128kbits/s Estèreo (Català)
Àudio HDTVrip Ac3 128kbits/s Mono (Anglès)
Àudio HDTVrip Ac3 128kbits/s Mono (Audiodescripció)
Arxiu de 1,06 Gigues (1142033613 bytes)
1 hora, 13 minuts i 23 segons
Hash Md5: d7d9fb6b6a61fe9a222a41a8ca8336c7
MediaInfo
General
Unique ID : 181641019213552507013142245069254297246 (0x88A6C9AD791EA1C8467C6EEF5EE8069E)
Complete name : D:\No apaguis mai el llum\No apaguis mai el llum (HDTVrip 720p català - anglès - audiodescripció per r5004) (TotsRucs.cat).mkv
Format : Matroska
Format version : Version 2
File size : 1.06 GiB
Duration : 1 h 13 min
Overall bit rate : 2 075 kb/s
Encoded date : UTC 2018-11-03 11:35:13
Writing application : mkvmerge v26.0.0 ('In The Game') 64-bit
Writing library : libebml v1.3.6 + libmatroska v1.4.9

Video
ID : 1
Format : AVC
Format/Info : Advanced Video Codec
Format profile : High@L4.1
Format settings, CABAC : Yes
Format settings, RefFrames : 8 frames
Codec ID : V_MPEG4/ISO/AVC
Duration : 1 h 13 min
Bit rate : 1 689 kb/s
Width : 1 280 pixels
Height : 528 pixels
Display aspect ratio : 2.40:1
Frame rate mode : Constant
Frame rate : 25.000 FPS
Color space : YUV
Chroma subsampling : 4:2:0
Bit depth : 8 bits
Scan type : Progressive
Bits/(Pixel*Frame) : 0.100
Stream size : 886 MiB (81%)
Writing library : x264 core 155 r2901 7d0ff22
Encoding settings : cabac=1 / ref=8 / deblock=1:-1:-1 / analyse=0x3:0x133 / me=umh / subme=9 / psy=1 / psy_rd=1.00:0.15 / mixed_ref=1 / me_range=16 / chroma_me=1 / trellis=2 / 8x8dct=1 / cqm=0 / deadzone=21,11 / fast_pskip=1 / chroma_qp_offset=-3 / threads=12 / lookahead_threads=1 / sliced_threads=0 / nr=0 / decimate=1 / interlaced=0 / bluray_compat=0 / constrained_intra=0 / bframes=3 / b_pyramid=2 / b_adapt=2 / b_bias=0 / direct=3 / weightb=1 / open_gop=0 / weightp=2 / keyint=250 / keyint_min=25 / scenecut=40 / intra_refresh=0 / rc_lookahead=60 / rc=crf / mbtree=1 / crf=18.0 / qcomp=0.60 / qpmin=0 / qpmax=69 / qpstep=4 / vbv_maxrate=62500 / vbv_bufsize=78125 / crf_max=0.0 / nal_hrd=none / filler=0 / ip_ratio=1.40 / aq=1:1.00
Default : Yes
Forced : No

Audio #1
ID : 2
Format : AC-3
Format/Info : Audio Coding 3
Format settings, Endianness : Big
Codec ID : A_AC3
Duration : 1 h 13 min
Bit rate mode : Constant
Bit rate : 128 kb/s
Channel(s) : 2 channels
Channel positions : Front: L R
Sampling rate : 48.0 kHz
Frame rate : 31.250 FPS (1536 SPF)
Bit depth : 16 bits
Compression mode : Lossy
Stream size : 67.2 MiB (6%)
Language : Catalan
Service kind : Complete Main
Default : Yes
Forced : No

Audio #2
ID : 3
Format : AC-3
Format/Info : Audio Coding 3
Format settings, Endianness : Big
Codec ID : A_AC3
Duration : 1 h 13 min
Bit rate mode : Constant
Bit rate : 128 kb/s
Channel(s) : 1 channel
Channel positions : Front: C
Sampling rate : 48.0 kHz
Frame rate : 31.250 FPS (1536 SPF)
Bit depth : 16 bits
Compression mode : Lossy
Stream size : 67.2 MiB (6%)
Language : English
Service kind : Complete Main
Default : No
Forced : No

Audio #3
ID : 4
Format : AC-3
Format/Info : Audio Coding 3
Format settings, Endianness : Big
Codec ID : A_AC3
Duration : 1 h 13 min
Bit rate mode : Constant
Bit rate : 128 kb/s
Channel(s) : 1 channel
Channel positions : Front: C
Sampling rate : 48.0 kHz
Frame rate : 31.250 FPS (1536 SPF)
Bit depth : 16 bits
Compression mode : Lossy
Stream size : 67.2 MiB (6%)
Service kind : Complete Main
Default : No
Forced : No
r5004 l’ha editat per darrera vegada el dia: dg. nov. 04, 2018 20:24, en total s’ha editat 1 vegada.


"Hi ha gent a qui no li agrada que es parle, s'escriga o es pense en català. És la mateixa gent a qui no li agrada que es parle, s'escriga o es pense."
Imatge


XBG5
Entrades: 55
Membre des de: dl. ago. 22, 2016 22:18
Status: Desconnectat

Re: [ed2k] No apaguis mai el llum

#2

Entrada Autor: XBG5 » dg. nov. 04, 2018 18:08

Moltes gràcies!


d1k2
Entrades: 129
Membre des de: ds. maig 24, 2014 9:07
Status: Desconnectat

Re: [ed2k] No apaguis mai el llum

#3

Entrada Autor: d1k2 » dl. nov. 05, 2018 21:51

moltes gràcies r5004

Respon