[ed2k] Els ponts de Madison

Pel·lícules, cicles, etc.

Moderadors: Oliana, Petiso

Respon
Avatar de l’usuari

Autor del tema
r5004
Entrades: 12795
Membre des de: dc. nov. 01, 2006 8:08
Status: Desconnectat

[ed2k] Els ponts de Madison

#1

Entrada Autor: r5004 » dl. jul. 16, 2018 18:07

Els ponts de Madison

Imatge
Imdb Viquipèdia

Imatge
ccma.cat ha escrit:ELS PONTS DE MADISON (The bridges of Madison County)

Idioma versió original: anglès
Producció: Amblin, Malpaso i Warner Bros, 1995 (Estats Units)
Direcció: Clint Eastwood
Durada: 130 minuts
Guió: Richard LaGravenese, basat en la novel·la de Robert James Waller del mateix títol
Fotografia: Jack N. Green (color)
Música: Lennie Niehaus i Clint Eastwood
Intèrprets: Clint Eastwood (Robert Kincaid), Meryl Strep (Francesca Johnson), Annie Corley (Caroline), Victor Slezak (Michael Johnson), Jim Haynie (Richard Johnson), Sarah Kathryn Schmitt (Carolyn)

El 1965, en uns dies que està sola perquè té el marit i els nens en una fira, Francesca Johnson veu alterada la seva pacífica vida de mestressa de casa a causa de l'aparició de Robert Kincaid, un fotògraf de la revista National Geographic, que prepara un reportatge sobre els ponts del comtat de Madison. Durant quatre dies ella l'acompanya a localitzar els ponts i viu amb ell un idil·li agredolç que necessita recollir en el seu diari. Un cop morta, els fills el troben i són conscients de les il·lusions i la soledat que havia experimentat Francesca.
Dades de la publicació:
Vídeo HDTVrip x264 1280x720 a 2790 Kbits/s Qf=0.121 (Crf=18)
Àudio HDTVrip Ac3 128kbits/s Estèreo (Català)
Àudio HDTVrip Ac3 128kbits/s Mono (Anglès)
Arxiu de 2,65 Gigues (2847391701 bytes)
2 hores, 4 minuts i 32 segons.
Hash Md5: 0e76d9b2fc6f00cf1add693af4d7038f
MediaInfo
General
Unique ID : 67598222468577399307629902693194787255 (0x32DAF1AF7C7DB114F2B0BCA0B83BE9B7)
Complete name : D:\ponts de Madison\Els ponts de Madison (HDTVrip 720p català - anglès per r5004) (TotsRucs.cat).mkv
Format : Matroska
Format version : Version 2
File size : 2.65 GiB
Duration : 2 h 4 min
Overall bit rate : 3 048 kb/s
Encoded date : UTC 2018-07-15 20:52:01
Writing application : mkvmerge v22.0.0 ('At The End Of The World') 64-bit
Writing library : libebml v1.3.5 + libmatroska v1.4.8

Video
ID : 1
Format : AVC
Format/Info : Advanced Video Codec
Format profile : High@L4.1
Format settings, CABAC : Yes
Format settings, RefFrames : 8 frames
Codec ID : V_MPEG4/ISO/AVC
Duration : 2 h 4 min
Bit rate : 2 790 kb/s
Width : 1 280 pixels
Height : 720 pixels
Display aspect ratio : 16:9
Frame rate mode : Constant
Frame rate : 25.000 FPS
Color space : YUV
Chroma subsampling : 4:2:0
Bit depth : 8 bits
Scan type : Progressive
Bits/(Pixel*Frame) : 0.121
Stream size : 2.43 GiB (92%)
Writing library : x264 core 155 r2901 7d0ff22
Encoding settings : cabac=1 / ref=8 / deblock=1:-1:-1 / analyse=0x3:0x133 / me=umh / subme=9 / psy=1 / psy_rd=1.00:0.15 / mixed_ref=1 / me_range=16 / chroma_me=1 / trellis=2 / 8x8dct=1 / cqm=0 / deadzone=21,11 / fast_pskip=1 / chroma_qp_offset=-3 / threads=12 / lookahead_threads=1 / sliced_threads=0 / nr=0 / decimate=1 / interlaced=0 / bluray_compat=0 / constrained_intra=0 / bframes=3 / b_pyramid=2 / b_adapt=2 / b_bias=0 / direct=3 / weightb=1 / open_gop=0 / weightp=2 / keyint=250 / keyint_min=25 / scenecut=40 / intra_refresh=0 / rc_lookahead=60 / rc=crf / mbtree=1 / crf=18.0 / qcomp=0.60 / qpmin=0 / qpmax=69 / qpstep=4 / vbv_maxrate=62500 / vbv_bufsize=78125 / crf_max=0.0 / nal_hrd=none / filler=0 / ip_ratio=1.40 / aq=1:1.00
Default : Yes
Forced : No

Audio #1
ID : 2
Format : AC-3
Format/Info : Audio Coding 3
Format settings, Endianness : Big
Codec ID : A_AC3
Duration : 2 h 4 min
Bit rate mode : Constant
Bit rate : 128 kb/s
Channel(s) : 2 channels
Channel positions : Front: L R
Sampling rate : 48.0 kHz
Frame rate : 31.250 FPS (1536 SPF)
Bit depth : 16 bits
Compression mode : Lossy
Stream size : 114 MiB (4%)
Language : Catalan
Service kind : Complete Main
Default : Yes
Forced : No

Audio #2
ID : 3
Format : AC-3
Format/Info : Audio Coding 3
Format settings, Endianness : Big
Codec ID : A_AC3
Duration : 2 h 4 min
Bit rate mode : Constant
Bit rate : 128 kb/s
Channel(s) : 1 channel
Channel positions : Front: C
Sampling rate : 48.0 kHz
Frame rate : 31.250 FPS (1536 SPF)
Bit depth : 16 bits
Compression mode : Lossy
Stream size : 114 MiB (4%)
Language : English
Service kind : Complete Main
Default : No
Forced : No


"Hi ha gent a qui no li agrada que es parle, s'escriga o es pense en català. És la mateixa gent a qui no li agrada que es parle, s'escriga o es pense."
Imatge

Avatar de l’usuari

naroatna
Entrades: 19512
Membre des de: ds. des. 30, 2006 23:43
Ubicació: Figueres - Alt Empordà
Status: Desconnectat

Re: [ed2k] Els ponts de Madison

#2

Entrada Autor: naroatna » dl. jul. 16, 2018 19:24

Moltes gràcies r5004 !! :D

Fins aviat!
Imatge

Moltes gràcies!

Respon