[ed2k] San Andreas

Pel·lícules, cicles, etc.

Moderadors: Oliana, Petiso

Respon
Avatar de l’usuari

Autor del tema
r5004
Entrades: 12839
Membre des de: dc. nov. 01, 2006 8:08
Status: Desconnectat

[ed2k] San Andreas

#1

Entrada Autor: r5004 » ds. juny 30, 2018 20:10

San Andreas

Imatge
Imdb Viquipèdia

Imatge
ccma.cat ha escrit:SAN ANDREAS (San Andreas)
Direcció: Brad Peyton
Guió: Carlton Cuse (Història: Andre Fabrizio, Jeremy Passmore)
Producció: Warner Bros. / Village Roadshow Pictures / New Line Cinema / RatPac-Dune Entertainment / FPC Production
Any de producció: 2015
Durada: 109 minuts
Fotografia: Andrew Lockington
Música: Andrew Lockington
Intèrprets: Dwayne 'The Rock' Johnson, Alexandra Daddario, Carla Gugino, Paul Giamatti, Hugo Johnstone-Burt, Art Parkinson, Ioan Gruffudd, Will Yun Lee, Todd Williams, Natalie Stephany Aguilar, Kylie Minogue, Archie Panjabi, Colton Haynes, Simone Kessell, Marissa Neitling, Morgan Griffin

En Ray Gaines és un membre del cos de bombers de Los Angeles especialitzat en rescats perillosos, amb una llarga experiència a l'exèrcit, però viu turmentat per no haver pogut salvar una de les seves filles mentre feien ràfting, un fet que a la llarga el va portar a separar-se de la seva dona. La vida, però, li donarà una segona oportunitat quan un seguit de terribles terratrèmols sacsegin tot l'estat de Califòrnia i es trobi que ha de rescatar la seva exdona a Los Angeles i després la seva altra filla a San Francisco, on al terratrèmol inicial s'hi sumarà un tsunami devastador.
Dades de la publicació:
Vídeo HDTVrip x264 1280x528 a 2809 Kbits/s Qf=0.166 (Crf=18)
Àudio HDTVrip Ac3 128kbits/s Estèreo (Català)
Àudio HDTVrip Ac3 128kbits/s Mono (Anglès)
Àudio HDTVrip Ac3 128kbits/s Mono (Audiodescripció)
Arxiu de 2,29 Gigues (2468323999 bytes)
1 hora i 43 minuts
Hash Md5: e64c9ced1d0a3b395b649d3573613446
MediaInfo
General
Unique ID : 232610021306576622177438305465569803684 (0xAEFF0F7F8ACADE8367D8AD7C1F4A7DA4)
Complete name : D:\San andreas\San Andreas (HDTVrip 720p català - anglès - audiodescripció per r5004) (TotsRucs.cat).mkv
Format : Matroska
Format version : Version 2
File size : 2.30 GiB
Duration : 1 h 43 min
Overall bit rate : 3 195 kb/s
Encoded date : UTC 2018-06-30 15:44:28
Writing application : mkvmerge v22.0.0 ('At The End Of The World') 64-bit
Writing library : libebml v1.3.5 + libmatroska v1.4.8

Video
ID : 1
Format : AVC
Format/Info : Advanced Video Codec
Format profile : High@L4.1
Format settings, CABAC : Yes
Format settings, RefFrames : 8 frames
Codec ID : V_MPEG4/ISO/AVC
Duration : 1 h 43 min
Bit rate : 2 809 kb/s
Width : 1 280 pixels
Height : 528 pixels
Display aspect ratio : 2.40:1
Frame rate mode : Constant
Frame rate : 25.000 FPS
Color space : YUV
Chroma subsampling : 4:2:0
Bit depth : 8 bits
Scan type : Progressive
Bits/(Pixel*Frame) : 0.166
Stream size : 2.02 GiB (88%)
Writing library : x264 core 155 r2901 7d0ff22
Encoding settings : cabac=1 / ref=8 / deblock=1:-1:-1 / analyse=0x3:0x133 / me=umh / subme=9 / psy=1 / psy_rd=1.00:0.15 / mixed_ref=1 / me_range=16 / chroma_me=1 / trellis=2 / 8x8dct=1 / cqm=0 / deadzone=21,11 / fast_pskip=1 / chroma_qp_offset=-3 / threads=12 / lookahead_threads=1 / sliced_threads=0 / nr=0 / decimate=1 / interlaced=0 / bluray_compat=0 / constrained_intra=0 / bframes=3 / b_pyramid=2 / b_adapt=2 / b_bias=0 / direct=3 / weightb=1 / open_gop=0 / weightp=2 / keyint=250 / keyint_min=25 / scenecut=40 / intra_refresh=0 / rc_lookahead=60 / rc=crf / mbtree=1 / crf=18.0 / qcomp=0.60 / qpmin=0 / qpmax=69 / qpstep=4 / vbv_maxrate=62500 / vbv_bufsize=78125 / crf_max=0.0 / nal_hrd=none / filler=0 / ip_ratio=1.40 / aq=1:1.00
Default : Yes
Forced : No

Audio #1
ID : 2
Format : AC-3
Format/Info : Audio Coding 3
Format settings, Endianness : Big
Codec ID : A_AC3
Duration : 1 h 43 min
Bit rate mode : Constant
Bit rate : 128 kb/s
Channel(s) : 2 channels
Channel positions : Front: L R
Sampling rate : 48.0 kHz
Frame rate : 31.250 FPS (1536 SPF)
Bit depth : 16 bits
Compression mode : Lossy
Stream size : 94.3 MiB (4%)
Language : Catalan
Service kind : Complete Main
Default : Yes
Forced : No

Audio #2
ID : 3
Format : AC-3
Format/Info : Audio Coding 3
Format settings, Endianness : Big
Codec ID : A_AC3
Duration : 1 h 43 min
Bit rate mode : Constant
Bit rate : 128 kb/s
Channel(s) : 1 channel
Channel positions : Front: C
Sampling rate : 48.0 kHz
Frame rate : 31.250 FPS (1536 SPF)
Bit depth : 16 bits
Compression mode : Lossy
Stream size : 94.3 MiB (4%)
Language : English
Service kind : Complete Main
Default : No
Forced : No

Audio #3
ID : 4
Format : AC-3
Format/Info : Audio Coding 3
Format settings, Endianness : Big
Codec ID : A_AC3
Duration : 1 h 43 min
Bit rate mode : Constant
Bit rate : 128 kb/s
Channel(s) : 1 channel
Channel positions : Front: C
Sampling rate : 48.0 kHz
Frame rate : 31.250 FPS (1536 SPF)
Bit depth : 16 bits
Compression mode : Lossy
Stream size : 94.3 MiB (4%)
Service kind : Complete Main
Default : No
Forced : No


"Hi ha gent a qui no li agrada que es parle, s'escriga o es pense en català. És la mateixa gent a qui no li agrada que es parle, s'escriga o es pense."
Imatge


XBG5
Entrades: 52
Membre des de: dl. ago. 22, 2016 22:18
Status: Desconnectat

Re: [ed2k] San Andreas

#2

Entrada Autor: XBG5 » ds. juny 30, 2018 21:14

Moltes gràcies!


aluemporda
Entrades: 19
Membre des de: ds. set. 10, 2011 23:22
Status: Desconnectat

Re: [ed2k] San Andreas

#3

Entrada Autor: aluemporda » dg. jul. 01, 2018 7:26

gracies !!!

Avatar de l’usuari

Adrià05
Entrades: 1730
Membre des de: dt. feb. 03, 2015 20:06
Status: Desconnectat

Re: [ed2k] San Andreas

#4

Entrada Autor: Adrià05 » dg. jul. 01, 2018 18:44

Gràcies!!


d1k2
Entrades: 116
Membre des de: ds. maig 24, 2014 9:07
Status: Desconnectat

Re: [ed2k] San Andreas

#5

Entrada Autor: d1k2 » dl. jul. 02, 2018 20:27

moltes gràcies r5004

Avatar de l’usuari

kivar
Entrades: 478
Membre des de: dg. gen. 06, 2008 10:18
Ubicació: Alacant
Status: Desconnectat

Re: [ed2k] San Andreas

#6

Entrada Autor: kivar » dg. jul. 08, 2018 14:00

Gran estrena. Gracies

Respon