[ed2k] 2 guns

Pel·lícules, cicles, etc.

Moderadors: Oliana, Petiso

Respon
Avatar de l’usuari

Autor del tema
r5004
Entrades: 12750
Membre des de: dc. nov. 01, 2006 8:08
Status: Desconnectat

[ed2k] 2 guns

#1

Entrada Autor: r5004 » dg. juny 24, 2018 12:35

2 guns

Imatge
Imdb

Imatge
ccma.cat ha escrit: 2 GUNS (2 guns)
Direcció: Baltasar Kormákur
Guió: Blake Masters (Novel·la gràfica: Steven Grant)
Producció: Universal Pictures / Emmett/Furla Films / Boom Entertainment / Envision Entertainment Corporation
Any de producció: 2013
Durada: 103 minuts
Fotografía: Oliver Wood
Música: Clinton Shorter
Intèrprets: Mark Wahlberg, Denzel Washington, Paula Patton, Bill Paxton, James Marsden, Edward James Olmos, Fred Ward, Robert John Burke, Greg Sproles, Patrick Fischler, Edgar Arreola, Derek Solorsano, Kyle Russell Clements, Christopher Matthew Cook
Un agent de la DEA, en Bobby Trench (Denzel Washington), i un oficial de la intel·ligència naval, en Michael Stigman (Mark Whalberg), aconsegueixen robar-li 43 milions de dòlars a la màfia. El problema és que aquests diners no pertanyen realment a la organització criminal, si no a la CIA.
Dades de la publicació:
Vídeo HDTVrip x264 1280x720 a 3006 Kbits/s Qf=0.130 (Crf=18)
Àudio HDTVrip Ac3 128kbits/s Estèreo (Català)
Àudio HDTVrip Ac3 128kbits/s Mono (Anglès)
Àudio HDTVrip Ac3 128kbits/s Mono (Audiodescripció)
Arxiu de 2,28 Gigues (2455196978 bytes)
1 hora, 36 minuts i 29 segons
Hash Md5: e71e8ccfadc81fe126300199223f6f71
MediaInfo
General
Unique ID : 159910770652524277765725347881811327785 (0x784DB1B4AA25C0CBAF1B069836E63B29)
Complete name : D:\2 guns\2 guns (HDTVrip 720p català - anglès - audiodescripció per r5004) (TotsRucs.cat).mkv
Format : Matroska
Format version : Version 2
File size : 2.29 GiB
Duration : 1 h 36 min
Overall bit rate : 3 393 kb/s
Encoded date : UTC 2018-06-23 12:30:19
Writing application : mkvmerge v22.0.0 ('At The End Of The World') 64-bit
Writing library : libebml v1.3.5 + libmatroska v1.4.8

Video
ID : 1
Format : AVC
Format/Info : Advanced Video Codec
Format profile : High@L4.1
Format settings, CABAC : Yes
Format settings, RefFrames : 8 frames
Codec ID : V_MPEG4/ISO/AVC
Duration : 1 h 36 min
Bit rate : 3 006 kb/s
Width : 1 280 pixels
Height : 720 pixels
Display aspect ratio : 16:9
Frame rate mode : Constant
Frame rate : 25.000 FPS
Color space : YUV
Chroma subsampling : 4:2:0
Bit depth : 8 bits
Scan type : Progressive
Bits/(Pixel*Frame) : 0.130
Stream size : 2.03 GiB (89%)
Writing library : x264 core 155 r2901 7d0ff22
Encoding settings : cabac=1 / ref=8 / deblock=1:-1:-1 / analyse=0x3:0x133 / me=umh / subme=9 / psy=1 / psy_rd=1.00:0.15 / mixed_ref=1 / me_range=16 / chroma_me=1 / trellis=2 / 8x8dct=1 / cqm=0 / deadzone=21,11 / fast_pskip=1 / chroma_qp_offset=-3 / threads=12 / lookahead_threads=1 / sliced_threads=0 / nr=0 / decimate=1 / interlaced=0 / bluray_compat=0 / constrained_intra=0 / bframes=3 / b_pyramid=2 / b_adapt=2 / b_bias=0 / direct=3 / weightb=1 / open_gop=0 / weightp=2 / keyint=250 / keyint_min=25 / scenecut=40 / intra_refresh=0 / rc_lookahead=60 / rc=crf / mbtree=1 / crf=18.0 / qcomp=0.60 / qpmin=0 / qpmax=69 / qpstep=4 / vbv_maxrate=62500 / vbv_bufsize=78125 / crf_max=0.0 / nal_hrd=none / filler=0 / ip_ratio=1.40 / aq=1:1.00
Default : Yes
Forced : No

Audio #1
ID : 2
Format : AC-3
Format/Info : Audio Coding 3
Format settings, Endianness : Big
Codec ID : A_AC3
Duration : 1 h 36 min
Bit rate mode : Constant
Bit rate : 128 kb/s
Channel(s) : 2 channels
Channel positions : Front: L R
Sampling rate : 48.0 kHz
Frame rate : 31.250 FPS (1536 SPF)
Bit depth : 16 bits
Compression mode : Lossy
Stream size : 88.3 MiB (4%)
Language : Catalan
Service kind : Complete Main
Default : Yes
Forced : No

Audio #2
ID : 3
Format : AC-3
Format/Info : Audio Coding 3
Format settings, Endianness : Big
Codec ID : A_AC3
Duration : 1 h 36 min
Bit rate mode : Constant
Bit rate : 128 kb/s
Channel(s) : 1 channel
Channel positions : Front: C
Sampling rate : 48.0 kHz
Frame rate : 31.250 FPS (1536 SPF)
Bit depth : 16 bits
Compression mode : Lossy
Stream size : 88.3 MiB (4%)
Language : English
Service kind : Complete Main
Default : No
Forced : No

Audio #3
ID : 4
Format : AC-3
Format/Info : Audio Coding 3
Format settings, Endianness : Big
Codec ID : A_AC3
Duration : 1 h 36 min
Bit rate mode : Constant
Bit rate : 128 kb/s
Channel(s) : 1 channel
Channel positions : Front: C
Sampling rate : 48.0 kHz
Frame rate : 31.250 FPS (1536 SPF)
Bit depth : 16 bits
Compression mode : Lossy
Stream size : 88.3 MiB (4%)
Service kind : Complete Main
Default : No
Forced : No


"Hi ha gent a qui no li agrada que es parle, s'escriga o es pense en català. És la mateixa gent a qui no li agrada que es parle, s'escriga o es pense."
Imatge


XBG5
Entrades: 52
Membre des de: dl. ago. 22, 2016 22:18
Status: Desconnectat

Re: [ed2k] 2 guns

#2

Entrada Autor: XBG5 » dg. juny 24, 2018 18:23

Moltes gràcies!


d1k2
Entrades: 110
Membre des de: ds. maig 24, 2014 9:07
Status: Desconnectat

Re: [ed2k] 2 guns

#3

Entrada Autor: d1k2 » dl. juny 25, 2018 13:40

moltes gràcies r5004

Respon