[ed2k] Tot passejant Miss Daisy

Pel·lícules, cicles, etc.

Moderadors: Oliana, Petiso

Respon
Avatar de l’usuari

Autor del tema
r5004
Entrades: 12899
Membre des de: dc. nov. 01, 2006 8:08
Status: Desconnectat

[ed2k] Tot passejant Miss Daisy

#1

Entrada Autor: r5004 » dg. juny 10, 2018 20:02

Tot passejant Miss Daisy

Imatge
Imdb Viquipèdia

Imatge
ccma.cat ha escrit:Tot passejant Miss Daisy (Driving Miss Daisy)

Idioma versió original: anglès
Producció: Majestic Film, The Zanuck Company i Warner, 1990 (Estats Units)
Direcció: Bruce Beresford / Durada: 94 minuts
Guió: Alfred Uhry, basat en la seva obra teatral
Fotografia: Peter James (color)
Música: Hanz Zimmer
Intèrprets: Morgan Freeman (Hoke Colburn), Jessica Tandy (Daisy Werthan), Dan Aykroyd (Boolie Werthan), Patti LuPone (Florine Werthan), Esther Rolle (Idella), Jo Ann Havrilla (Miss McClatchey)

Una viuda jueva que viu a Atlanta és massa gran per continuar conduint el cotxe i el seu fill li insisteix que contracti un xofer. Això, als anys cinquanta als Estats Units, volia dir necessàriament un home negre. El fill decideix contractar-lo pel seu compte i ella es nega a acceptar-lo. Però el xofer és un home de bon caràcter que aconsegueix anar-se guanyant la confiança de la dona.
Dades de la publicació:
Vídeo BDrip x264 1280x720 a 10300 Kbits/s Qf=0.467
Àudio DVBrip Ac3 128kbits/s Estèreo (Català)
Àudio HDrip Ac3 448kbits/s 5.1 (Anglès)
Subtítols en anglès
Arxiu de 7,56 Gigues (8122454973 bytes)
1 hora, 39 minuts i 25 segons
Hash Md5: 805530f5dc6c94373c88aec99104874b
MediaInfo
General
Unique ID : 289285424636144676549329072546030004612 (0xD9A2589F21A4E06AC7A49BA97B67A984)
Complete name : D:\TOT_PASSEJANT_MISS_DAISY\Tot passejant Miss Daisy (BDrip 720p català - anglès per r5004) (TotsRucs.cat).mkv
Format : Matroska
Format version : Version 4 / Version 2
File size : 7.56 GiB
Duration : 1 h 39 min
Overall bit rate : 10.9 Mb/s
Encoded date : UTC 2018-06-10 03:27:11
Writing application : mkvmerge v23.0.0 ('The Bride Said No') 64-bit
Writing library : libebml v1.3.6 + libmatroska v1.4.9

Video
ID : 1
Format : AVC
Format/Info : Advanced Video Codec
Format profile : High@L4.1
Format settings, CABAC : Yes
Format settings, RefFrames : 9 frames
Codec ID : V_MPEG4/ISO/AVC
Duration : 1 h 39 min
Bit rate : 10.3 Mb/s
Width : 1 280 pixels
Height : 720 pixels
Display aspect ratio : 16:9
Frame rate mode : Constant
Frame rate : 23.976 (24000/1001) FPS
Color space : YUV
Chroma subsampling : 4:2:0
Bit depth : 8 bits
Scan type : Progressive
Bits/(Pixel*Frame) : 0.467
Stream size : 7.16 GiB (95%)
Writing library : x264 core 122 r2184 5c85e0a
Encoding settings : cabac=1 / ref=9 / deblock=1:-3:-3 / analyse=0x3:0x133 / me=umh / subme=10 / psy=1 / psy_rd=1.00:0.05 / mixed_ref=1 / me_range=32 / chroma_me=1 / trellis=2 / 8x8dct=1 / cqm=0 / deadzone=21,11 / fast_pskip=0 / chroma_qp_offset=-3 / threads=3 / sliced_threads=0 / nr=0 / decimate=0 / interlaced=0 / bluray_compat=0 / constrained_intra=0 / bframes=7 / b_pyramid=2 / b_adapt=2 / b_bias=0 / direct=3 / weightb=1 / open_gop=0 / weightp=2 / keyint=250 / keyint_min=23 / scenecut=40 / intra_refresh=0 / rc_lookahead=120 / rc=crf / mbtree=1 / crf=17.0 / qcomp=0.75 / qpmin=0 / qpmax=69 / qpstep=4 / ip_ratio=1.40 / aq=1:0.80
Default : Yes
Forced : No

Audio #1
ID : 2
Format : AC-3
Format/Info : Audio Coding 3
Format settings, Endianness : Big
Codec ID : A_AC3
Duration : 1 h 39 min
Bit rate mode : Constant
Bit rate : 128 kb/s
Channel(s) : 2 channels
Channel positions : Front: L R
Sampling rate : 48.0 kHz
Frame rate : 31.250 FPS (1536 SPF)
Bit depth : 16 bits
Compression mode : Lossy
Stream size : 91.0 MiB (1%)
Language : Catalan
Service kind : Complete Main
Default : Yes
Forced : No

Audio #2
ID : 3
Format : AC-3
Format/Info : Audio Coding 3
Format settings, Endianness : Big
Codec ID : A_AC3
Duration : 1 h 39 min
Bit rate mode : Constant
Bit rate : 448 kb/s
Channel(s) : 6 channels
Channel positions : Front: L C R, Side: L R, LFE
Sampling rate : 48.0 kHz
Frame rate : 31.250 FPS (1536 SPF)
Bit depth : 16 bits
Compression mode : Lossy
Stream size : 319 MiB (4%)
Language : English
Service kind : Complete Main
Default : No
Forced : No

Text
ID : 4
Format : UTF-8
Codec ID : S_TEXT/UTF8
Codec ID/Info : UTF-8 Plain Text
Duration : 1 h 34 min
Bit rate : 55 b/s
Count of elements : 1092
Stream size : 38.2 KiB (0%)
Language : English
Default : No
Forced : No

Menu
00:00:00.000 : :00:00:00.000
00:10:33.466 : :00:10:33.466
00:16:21.564 : :00:16:21.564
00:25:49.840 : :00:25:49.840
00:34:55.051 : :00:34:55.051
00:45:23.429 : :00:45:23.429
00:52:25.893 : :00:52:25.893
01:00:57.612 : :01:00:57.612
01:11:51.933 : :01:11:51.933
01:16:10.733 : :01:16:10.733
01:23:10.402 : :01:23:10.402
01:36:08.262 : :01:36:08.262


"Hi ha gent a qui no li agrada que es parle, s'escriga o es pense en català. És la mateixa gent a qui no li agrada que es parle, s'escriga o es pense."
Imatge

Avatar de l’usuari

Autor del tema
r5004
Entrades: 12899
Membre des de: dc. nov. 01, 2006 8:08
Status: Desconnectat

Re: [ed2k] Tot passejant Miss Daisy

#2

Entrada Autor: r5004 » dg. juny 10, 2018 20:06

Aquí hi ha la versió SD:

viewtopic.php?f=3&t=1332
"Hi ha gent a qui no li agrada que es parle, s'escriga o es pense en català. És la mateixa gent a qui no li agrada que es parle, s'escriga o es pense."
Imatge


d1k2
Entrades: 123
Membre des de: ds. maig 24, 2014 9:07
Status: Desconnectat

Re: [ed2k] Tot passejant Miss Daisy

#3

Entrada Autor: d1k2 » dc. juny 13, 2018 18:26

Moltes gràcies r5004

Respon