[ed2k] Una bossa de bales

Pel·lícules, cicles, etc.

Moderadors: Oliana, Petiso

Respon
Avatar de l’usuari

Autor del tema
r5004
Entrades: 12894
Membre des de: dc. nov. 01, 2006 8:08
Status: Desconnectat

[ed2k] Una bossa de bales

#1

Entrada Autor: r5004 » dv. juny 01, 2018 18:13

Una bossa de bales

Imatge
Imdb

Imatge
gencat.cat ha escrit:El film, basat en la novel·la autobiogràfica de Joseph Joffo Un sac de billes, ha estat dirigit per Christian Duguay i interpretat per Dorian Le Clech, Batyste Fleurial, Christian Clavier, Elsa Zylberstein, César Domboy, Patrick Bruel, Kev Adams, Lucas Prisor, Ilian Bergala i Bernard Campan.
L’acció se situa en el París de l’ocupació alemanya. Als germans jueus Maurice i Joseph els agrada jugar a bales abans de tornar a casa. Això s’acabarà quan els nois han de travessar tot França per fugir del perill que els envolta.
Dades de la publicació:
Vídeo BDrip x264 1920x800 a 5829 Kbits/s Qf=0.158 (Crf=18)
Àudio BDrip Ac3 448kbits/s 5.1 (Català)
Àudio BDrip Ac3 448kbits/s 5.1 (Francès)
Subtítols en català (també els forçats)
Arxiu de 5,29 Gigues (5691002763 bytes)
1 hora, 52 minuts i 47 segons
Hash Md5: 72478ed88bf988df3fa62685e547aadd
MediaInfo
General
Unique ID : 59655534347594086363422295466991593699 (0x2CE13CED3AED0EFC6BC2EC8A12D6A8E3)
Complete name : D:\Una bossa de bales\rip\Una bossa de bales (BDrip 1080p català - francès per r5004) (TotsRucs.cat).mkv
Format : Matroska
Format version : Version 2
File size : 5.30 GiB
Duration : 1 h 52 min
Overall bit rate : 6 728 kb/s
Encoded date : UTC 2018-05-31 12:46:41
Writing application : mkvmerge v22.0.0 ('At The End Of The World') 64-bit
Writing library : libebml v1.3.5 + libmatroska v1.4.8

Video
ID : 1
Format : AVC
Format/Info : Advanced Video Codec
Format profile : High@L4.1
Format settings, CABAC : Yes
Format settings, RefFrames : 5 frames
Codec ID : V_MPEG4/ISO/AVC
Duration : 1 h 52 min
Bit rate : 5 829 kb/s
Width : 1 920 pixels
Height : 800 pixels
Display aspect ratio : 2.40:1
Frame rate mode : Constant
Frame rate : 24.000 FPS
Color space : YUV
Chroma subsampling : 4:2:0
Bit depth : 8 bits
Scan type : Progressive
Bits/(Pixel*Frame) : 0.158
Stream size : 4.59 GiB (87%)
Writing library : x264 core 155 r2901 7d0ff22
Encoding settings : cabac=1 / ref=5 / deblock=1:-1:-1 / analyse=0x3:0x133 / me=umh / subme=9 / psy=1 / psy_rd=1.00:0.15 / mixed_ref=1 / me_range=16 / chroma_me=1 / trellis=2 / 8x8dct=1 / cqm=0 / deadzone=21,11 / fast_pskip=1 / chroma_qp_offset=-3 / threads=12 / lookahead_threads=1 / sliced_threads=0 / nr=0 / decimate=1 / interlaced=0 / bluray_compat=0 / constrained_intra=0 / bframes=3 / b_pyramid=2 / b_adapt=2 / b_bias=0 / direct=3 / weightb=1 / open_gop=0 / weightp=2 / keyint=240 / keyint_min=24 / scenecut=40 / intra_refresh=0 / rc_lookahead=60 / rc=crf / mbtree=1 / crf=18.0 / qcomp=0.60 / qpmin=0 / qpmax=69 / qpstep=4 / vbv_maxrate=62500 / vbv_bufsize=78125 / crf_max=0.0 / nal_hrd=none / filler=0 / ip_ratio=1.40 / aq=1:1.00
Default : Yes
Forced : No

Audio #1
ID : 2
Format : AC-3
Format/Info : Audio Coding 3
Format settings, Endianness : Big
Codec ID : A_AC3
Duration : 1 h 52 min
Bit rate mode : Constant
Bit rate : 448 kb/s
Channel(s) : 6 channels
Channel positions : Front: L C R, Side: L R, LFE
Sampling rate : 48.0 kHz
Frame rate : 31.250 FPS (1536 SPF)
Bit depth : 16 bits
Compression mode : Lossy
Stream size : 361 MiB (7%)
Language : Catalan
Service kind : Complete Main
Default : Yes
Forced : No

Audio #2
ID : 3
Format : AC-3
Format/Info : Audio Coding 3
Format settings, Endianness : Big
Codec ID : A_AC3
Duration : 1 h 52 min
Bit rate mode : Constant
Bit rate : 448 kb/s
Channel(s) : 6 channels
Channel positions : Front: L C R, Side: L R, LFE
Sampling rate : 48.0 kHz
Frame rate : 31.250 FPS (1536 SPF)
Bit depth : 16 bits
Compression mode : Lossy
Stream size : 361 MiB (7%)
Language : French
Service kind : Complete Main
Default : No
Forced : No

Text #1
ID : 4
Format : UTF-8
Codec ID : S_TEXT/UTF8
Codec ID/Info : UTF-8 Plain Text
Duration : 1 h 46 min
Bit rate : 46 b/s
Count of elements : 1396
Stream size : 36.3 KiB (0%)
Language : Catalan
Default : No
Forced : No

Text #2
ID : 5
Format : UTF-8
Codec ID : S_TEXT/UTF8
Codec ID/Info : UTF-8 Plain Text
Duration : 1 h 34 min
Bit rate : 0 b/s
Count of elements : 20
Stream size : 394 Bytes (0%)
Language : Catalan
Default : No
Forced : Yes

Menu
00:00:00.000 : en:00:00:00.000
00:11:05.208 : en:00:11:05.208
00:19:00.250 : en:00:19:00.250
00:28:00.000 : en:00:28:00.000
00:34:16.750 : en:00:34:16.750
00:48:06.958 : en:00:48:06.958
00:59:57.792 : en:00:59:57.792
01:14:34.833 : en:01:14:34.833
01:22:06.667 : en:01:22:06.667
01:29:58.500 : en:01:29:58.500
01:36:37.375 : en:01:36:37.375
01:43:01.708 : en:01:43:01.708


"Hi ha gent a qui no li agrada que es parle, s'escriga o es pense en català. És la mateixa gent a qui no li agrada que es parle, s'escriga o es pense."
Imatge

Respon