[ed2k] Assalt al poder

Pel·lícules, cicles, etc.

Moderadors: Oliana, Petiso

Respon
Avatar de l’usuari

Autor del tema
r5004
Entrades: 13008
Membre des de: dc. nov. 01, 2006 8:08
Status: Desconnectat

[ed2k] Assalt al poder

#1

Entrada Autor: r5004 » dg. maig 27, 2018 18:20

Assalt al poder

Imatge
Imdb Viquipèdia

Imatge
ccma.cat ha escrit:Assalt al poder (White House Down)
Direcció: Roland Emmerich
Guió: James Vanderbilt
Producció: Columbia Pictures / Iron Horse Entertainment / Mythology Entertainment
Any de producció: 2013
Durada: 125 minuts
Fotografía: Anna Foerster
Música: Harald Kloser, Thomas Wanker
Intèrprets: Channing Tatum, Jamie Foxx, Maggie Gyllenhaal, James Woods, Joey King, Richard Jenkins, Jason Clarke, Matt Craven, Lance Reddick, Falk Hentschel, Michael Murphy, Romano Orzari, Patrick Sabongui, Jackie Geary, Andrew Shaver
John Cale, un policia del capitoli, veu rebutjada la seva petició de formar part del Servei Secret per protegir el President dels Estats Units. Un dia, mentre porta la seva filla a visitar la Casa Blanca, un grup armat assalta l'edifici. Amb el govern de la nació captiu i immers en el caos, Cale mirarà de salvar el President, la seva filla i el país.
Dades de la publicació:
Vídeo HDTVrip x264 1280x720 a 2914 Kbits/s Qf=0.126 (Crf=18)
Àudio HDTVrip Ac3 128kbits/s Estèreo (Català)
Àudio HDTVrip Ac3 128kbits/s Mono (Anglès)
Àudio HDTVrip Ac3 128kbits/s Mono (Audiodescripció)
Arxiu de 2,76 Gigues (2971787352 bytes)
2 hores i 3 segons
Hash Md5: 2f712cde6f4f61b741d963388a6f33ad
MediaInfo
General
Unique ID : 71735702633253143374226368257145746442 (0x35F7CB350E102CEEDCC6B9AC3010B40A)
Complete name : D:\Assalt al poder\Assalt al poder (HDTVrip 720p català - anglès - audiodescripció per r5004) (TotsRucs.cat).mkv
Format : Matroska
Format version : Version 2
File size : 2.77 GiB
Duration : 2 h 0 min
Overall bit rate : 3 300 kb/s
Encoded date : UTC 2018-05-27 08:47:10
Writing application : mkvmerge v22.0.0 ('At The End Of The World') 64-bit
Writing library : libebml v1.3.5 + libmatroska v1.4.8

Video
ID : 1
Format : AVC
Format/Info : Advanced Video Codec
Format profile : High@L4.1
Format settings, CABAC : Yes
Format settings, RefFrames : 8 frames
Codec ID : V_MPEG4/ISO/AVC
Duration : 2 h 0 min
Bit rate : 2 914 kb/s
Width : 1 280 pixels
Height : 720 pixels
Display aspect ratio : 16:9
Frame rate mode : Constant
Frame rate : 25.000 FPS
Color space : YUV
Chroma subsampling : 4:2:0
Bit depth : 8 bits
Scan type : Progressive
Bits/(Pixel*Frame) : 0.126
Stream size : 2.44 GiB (88%)
Writing library : x264 core 155 r2901 7d0ff22
Encoding settings : cabac=1 / ref=8 / deblock=1:-1:-1 / analyse=0x3:0x133 / me=umh / subme=9 / psy=1 / psy_rd=1.00:0.15 / mixed_ref=1 / me_range=16 / chroma_me=1 / trellis=2 / 8x8dct=1 / cqm=0 / deadzone=21,11 / fast_pskip=1 / chroma_qp_offset=-3 / threads=12 / lookahead_threads=1 / sliced_threads=0 / nr=0 / decimate=1 / interlaced=0 / bluray_compat=0 / constrained_intra=0 / bframes=3 / b_pyramid=2 / b_adapt=2 / b_bias=0 / direct=3 / weightb=1 / open_gop=0 / weightp=2 / keyint=250 / keyint_min=25 / scenecut=40 / intra_refresh=0 / rc_lookahead=60 / rc=crf / mbtree=1 / crf=18.0 / qcomp=0.60 / qpmin=0 / qpmax=69 / qpstep=4 / vbv_maxrate=62500 / vbv_bufsize=78125 / crf_max=0.0 / nal_hrd=none / filler=0 / ip_ratio=1.40 / aq=1:1.00
Default : Yes
Forced : No

Audio #1
ID : 2
Format : AC-3
Format/Info : Audio Coding 3
Format settings, Endianness : Big
Codec ID : A_AC3
Duration : 2 h 0 min
Bit rate mode : Constant
Bit rate : 128 kb/s
Channel(s) : 2 channels
Channel positions : Front: L R
Sampling rate : 48.0 kHz
Frame rate : 31.250 FPS (1536 SPF)
Bit depth : 16 bits
Compression mode : Lossy
Stream size : 110 MiB (4%)
Language : Catalan
Service kind : Complete Main
Default : Yes
Forced : No

Audio #2
ID : 3
Format : AC-3
Format/Info : Audio Coding 3
Format settings, Endianness : Big
Codec ID : A_AC3
Duration : 2 h 0 min
Bit rate mode : Constant
Bit rate : 128 kb/s
Channel(s) : 1 channel
Channel positions : Front: C
Sampling rate : 48.0 kHz
Frame rate : 31.250 FPS (1536 SPF)
Bit depth : 16 bits
Compression mode : Lossy
Stream size : 110 MiB (4%)
Language : English
Service kind : Complete Main
Default : No
Forced : No

Audio #3
ID : 4
Format : AC-3
Format/Info : Audio Coding 3
Format settings, Endianness : Big
Codec ID : A_AC3
Duration : 2 h 0 min
Bit rate mode : Constant
Bit rate : 128 kb/s
Channel(s) : 1 channel
Channel positions : Front: C
Sampling rate : 48.0 kHz
Frame rate : 31.250 FPS (1536 SPF)
Bit depth : 16 bits
Compression mode : Lossy
Stream size : 110 MiB (4%)
Language : Catalan
Service kind : Complete Main
Default : No
Forced : No


"Hi ha gent a qui no li agrada que es parle, s'escriga o es pense en català. És la mateixa gent a qui no li agrada que es parle, s'escriga o es pense."
Imatge


XBG5
Entrades: 57
Membre des de: dl. ago. 22, 2016 22:18
Status: Desconnectat

Re: [ed2k] Assalt al poder

#2

Entrada Autor: XBG5 » dl. maig 28, 2018 8:37

Moltes gràcies!


godowk
Entrades: 341
Membre des de: dg. gen. 27, 2013 13:23
Status: Desconnectat

Re: [ed2k] Assalt al poder

#3

Entrada Autor: godowk » dc. maig 30, 2018 13:55

Moltes mercès!

Respon