[ed2k] Un nen gran

Pel·lícules, cicles, etc.

Moderadors: Oliana, Petiso

Respon
Avatar de l’usuari

Autor del tema
r5004
Entrades: 12804
Membre des de: dc. nov. 01, 2006 8:08
Status: Desconnectat

[ed2k] Un nen gran

#1

Entrada Autor: r5004 » dl. maig 21, 2018 20:32

Un nen gran

Imatge
Imdb Viquipèdia

Imatge
ccma.cat ha escrit:Un nen gran (About a boy)
Direcció i guió: Paul Weitz, Chris Weitz, Peter Hedges (novel·la Nick Hornby)
Producció: Universal Pictures / Studiocanal / Working Title Films
País de producció: Regne Unit
Any de producció: 2002
Idioma versió originai: Anglès
Intèrprets: Hugh Grant, Nicholas Hoult, Toni Collette, Rachel Weisz, Victoria Smurfit, Sharon Small, Rosalind Knight, Augustus Prew, Natalia Tena
Música: Damon Gough
Fotografía: Remi Adefarasin
Gènere: Comèdia. Drama. Comèdia dramàtica

En Will Freeman és un seductor d'uns trenta anys, ociós i feliç de ser-ho. Adepte a les aventures sense final, coneix un nou mitjà de multiplicar les seves conquestes: freqüentar les reunions de mares solteres inventant-se un fill imaginari. Però això el portarà a conèixer en Marcus, un nen una mica especial de 12 anys, que revolucionarà la seva vida fàcil de solter mal acostumat. Mentre en Will ensenya a en Marcus a convertir-se en popular, aquest últim ensenyarà a en Will que mai no és tard per madurar.
Dades de la publicació:
Vídeo DVBrip Xvid a 704x304 a 1100 kbits/s Qf=0,211 (95% del test de compressibilitat) + filtre DeLogo per ocultar part de la mosca + anunci d'estrena + senyalització "13"
Àudio DVBrip Mp3 128kbits/s Abr Estèreo (Català)
Ripeig de 8tv (no porta VO)
Arxiu de 808 Megues (847828222 bytes)
1 hora, 31 minuts i 52 segons
Hash Md5: fb35ce3c34cee036c44fb1241aa9a405
MediaInfo
General
Complete name : D:\Un nen gran\Un nen gran (DVBrip català per r5004) (TotsRucs.cat).avi
Format : AVI
Format/Info : Audio Video Interleave
File size : 809 MiB
Duration : 1 h 31 min
Overall bit rate mode : Variable
Overall bit rate : 1 230 kb/s

Video
ID : 0
Format : MPEG-4 Visual
Format profile : Advanced Simple@L5
Format settings, BVOP : 2
Format settings, QPel : No
Format settings, GMC : No warppoints
Format settings, Matrix : Default (H.263)
Codec ID : XVID
Codec ID/Hint : XviD
Duration : 1 h 31 min
Bit rate : 1 096 kb/s
Width : 704 pixels
Height : 304 pixels
Display aspect ratio : 2.35:1
Frame rate : 25.000 FPS
Color space : YUV
Chroma subsampling : 4:2:0
Bit depth : 8 bits
Scan type : Progressive
Compression mode : Lossy
Bits/(Pixel*Frame) : 0.205
Stream size : 720 MiB (89%)
Writing library : XviD 67

Audio
ID : 1
Format : MPEG Audio
Format version : Version 1
Format profile : Layer 3
Mode : Joint stereo
Mode extension : MS Stereo
Codec ID : 55
Codec ID/Hint : MP3
Duration : 1 h 31 min
Bit rate mode : Variable
Bit rate : 122 kb/s
Channel(s) : 2 channels
Sampling rate : 48.0 kHz
Compression mode : Lossy
Stream size : 80.2 MiB (10%)
Alignment : Aligned on interleaves
Interleave, duration : 24 ms (0.60 video frame)
Interleave, preload duration : 173 ms
Title : cat
Writing library : LAME3.100ª


"Hi ha gent a qui no li agrada que es parle, s'escriga o es pense en català. És la mateixa gent a qui no li agrada que es parle, s'escriga o es pense."
Imatge
Ripejos parats per unes setmanes. :cry:


d1k2
Entrades: 111
Membre des de: ds. maig 24, 2014 9:07
Status: Desconnectat

Re: [ed2k] Un nen gran

#2

Entrada Autor: d1k2 » dt. maig 22, 2018 18:53

Moltes gràcies r5004

Respon