[ed2k] El llarg hivern

Pel·lícules, cicles, etc.

Moderadors: Oliana, Petiso

Respon
Avatar de l’usuari

Autor del tema
r5004
Entrades: 12803
Membre des de: dc. nov. 01, 2006 8:08
Status: Desconnectat

[ed2k] El llarg hivern

#1

Entrada Autor: r5004 » dg. feb. 11, 2018 9:15

El llarg hivern

Imatge
Imdb

Imatge
ccma.cat ha escrit:El llarg hivern
Producció: Jaime Camino per a Tibidabo Films, 1991
Direcció: Jaime Camino
Durada: 165 minuts
Guió: Jaime Camino, Romà Gubern, Juan Marsé, Nicolás Bernheim, Manuel Gutiérrez Aragón
Fotografia: Hans Burmann (color)
Música: Albert Guinovart
Intèrprets: Vittorio Gassman (Claudi), Jacques Penot (Ramon Casals), Elizabeth Hurley (Emma Stapleton), Jean Rochefort (Jordi Casals), Adolfo Marsillach (Casimiro Casals), Asunción Balaguer (Assumpta de Casals)
Una història d'amor i de guerra i una crònica amarga de la vida i de la societat catalana a la fi de la Guerra Civil. Durant els anys més durs de la repressió franquista es desenvolupa l'epopeia d'una gran família de la burgesia barcelonina, partida entre els dos bàndols. L'eix de la història és el fidel majordom Claudi, l'únic que ha pogut veure i viure tot el que ha passat al llarg de sis dècades de la vida dels Casals a la Casa de les Mimoses.
Dades de la publicació:
Vídeo DVBrip Xvid 528x368 a 933 Kbits/s Qf=0.192
Àudio DVBrip Mp3 128kbits/s Abr Estèreo
Arxiu de 1,09 Gigues (1171436378 bytes)
2 hores, 26 minuts i 43 segons
Hash Md5: 3dfa5ad002e4894c9f94069b55e16ed7
MediaInfo
General
Complete name : D:\El llarg hivern\El llarg hivern (DVBrip per r5004)(TotsRucs.cat).avi
Format : AVI
Format/Info : Audio Video Interleave
File size : 1.09 GiB
Duration : 2 h 26 min
Overall bit rate mode : Variable
Overall bit rate : 1 065 kb/s

Video
ID : 0
Format : MPEG-4 Visual
Format profile : Advanced Simple@L5
Format settings, BVOP : 2
Format settings, QPel : No
Format settings, GMC : No warppoints
Format settings, Matrix : Default (H.263)
Codec ID : XVID
Codec ID/Hint : XviD
Duration : 2 h 26 min
Bit rate : 933 kb/s
Width : 528 pixels
Height : 368 pixels
Display aspect ratio : 1.435
Frame rate : 25.000 FPS
Color space : YUV
Chroma subsampling : 4:2:0
Bit depth : 8 bits
Scan type : Progressive
Compression mode : Lossy
Bits/(Pixel*Frame) : 0.192
Stream size : 979 MiB (88%)
Writing library : XviD 67

Audio
ID : 1
Format : MPEG Audio
Format version : Version 1
Format profile : Layer 3
Mode : Joint stereo
Mode extension : MS Stereo
Codec ID : 55
Codec ID/Hint : MP3
Duration : 2 h 26 min
Bit rate mode : Variable
Bit rate : 118 kb/s
Channel(s) : 2 channels
Sampling rate : 48.0 kHz
Compression mode : Lossy
Stream size : 124 MiB (11%)
Alignment : Aligned on interleaves
Interleave, duration : 24 ms (0.60 video frame)
Interleave, preload duration : 77 ms
Title : cat
Writing library : LAME3.100ª
r5004 l’ha editat per darrera vegada el dia: dg. maig 13, 2018 8:22, en total s’ha editat 1 vegada.


"Hi ha gent a qui no li agrada que es parle, s'escriga o es pense en català. És la mateixa gent a qui no li agrada que es parle, s'escriga o es pense."
Imatge
Ripejos parats per unes setmanes. :cry:


d1k2
Entrades: 111
Membre des de: ds. maig 24, 2014 9:07
Status: Desconnectat

Re: [ed2k] El llarg hivern

#2

Entrada Autor: d1k2 » dl. feb. 12, 2018 20:28

Moltes gràcies r5004.

Respon