[ed2k] L'últim dels mohicans

Pel·lícules, cicles, etc.

Moderadors: Oliana, Petiso

Respon
Avatar de l’usuari

Autor del tema
r5004
Entrades: 13657
Membre des de: dc. nov. 01, 2006 8:08
Status: Connectat

[ed2k] L'últim dels mohicans

#1

Entrada Autor: r5004 » ds. juny 18, 2016 13:05

L'últim dels mohicans

Imatge
Imdb Viquipèdia

Imatge
ccma.cat ha escrit:L'últim dels mohicans (The last of the mohicans)
A Nord-Amèrica, a mitjan segle XVIII, el fill d'uns colonitzadors blancs es queda orfe i l'adopten uns indis. Quan ja és un home fet es troba amb dues noies blanques que travessen el seu territori per anar a reunir-se amb el seu pare, un coronel, i s'enamora d'una de les noies. Ell les haurà de protegir del desig de venjança contra els blancs que tenen els seus companys indis.

Direcció: Michael Mann
Intèrprets: Daniel Day-Lewis, Madeleine Stowe, Russell Means, Eric Schweig, Jodhi May, Steven Waddington
Producció: Michael Mann i Hunt Lowry per a Warner i Morgan Creek, 1992 (Estats Units)
Durada: 107 minuts
Guió: Michael Mann i Christopher Crowe, basat en la novel·la de James Fenimore Cooper
Fotografia: Dante Spinotti (color)
Música: Trevor Jones i Randy Edelman
Dades de la publicació:
Vídeo HDTVrip x264 1280x544 a 2650 Kbits/s Qf=0,152 (70% del test de compressibilitat) + filtre DeLogo per ocultar un tros de la mosca
Àudio HDTVrip Ac3 128kbits/s Estèreo (Català)
Àudio HDTVrip Ac3 96kbits/s Mono (Anglès)
Arxiu de 2 Gigues (2158930556 bytes)
1 hora, 40 minuts i 5 segons
Hash Md5: 8c46e05836bdfd60c4d3f16fe76d3be0
MediaInfo
General
Unique ID : 204119318142124212336793036159506520687 (0x998FF36152B4A40EB22B221BB12D1A6F)
Complete name : D:\Mohicans\tdt_hd\L'últim dels mohicans (HDTVrip 720p català - anglès per r5004) (TotsRucs.cat).mkv
Format : Matroska
Format version : Version 2
File size : 2.01 GiB
Duration : 1h 40mn
Overall bit rate : 2 876 Kbps
Encoded date : UTC 2016-06-10 14:26:54
Writing application : mkvmerge v9.1.0 ('Little Earthquakes') 32bit
Writing library : libebml v1.3.3 + libmatroska v1.4.4
DURATION : 01:40:04.704000000
NUMBER_OF_FRAMES : 187647
NUMBER_OF_BYTES : 72056448
_STATISTICS_WRITING_APP : mkvmerge v9.1.0 ('Little Earthquakes') 32bit
_STATISTICS_WRITING_DATE_UTC : 2016-06-10 14:26:54
_STATISTICS_TAGS : BPS DURATION NUMBER_OF_FRAMES NUMBER_OF_BYTES

Video
ID : 1
Format : AVC
Format/Info : Advanced Video Codec
Format profile : High@L4.1
Format settings, CABAC : Yes
Format settings, ReFrames : 4 frames
Codec ID : V_MPEG4/ISO/AVC
Duration : 1h 40mn
Bit rate : 2 650 Kbps
Width : 1 280 pixels
Height : 544 pixels
Display aspect ratio : 2.35:1
Frame rate mode : Constant
Frame rate : 25.000 fps
Color space : YUV
Chroma subsampling : 4:2:0
Bit depth : 8 bits
Scan type : Progressive
Bits/(Pixel*Frame) : 0.152
Stream size : 1.81 GiB (90%)
Writing library : x264 core 148 r2692 64f4e24
Encoding settings : cabac=1 / ref=3 / deblock=1:-1:-1 / analyse=0x3:0x113 / me=hex / subme=7 / psy=1 / psy_rd=1.00:0.15 / mixed_ref=1 / me_range=16 / chroma_me=1 / trellis=1 / 8x8dct=1 / cqm=0 / deadzone=21,11 / fast_pskip=1 / chroma_qp_offset=-3 / threads=12 / lookahead_threads=2 / sliced_threads=0 / nr=0 / decimate=1 / interlaced=0 / bluray_compat=0 / constrained_intra=0 / bframes=3 / b_pyramid=2 / b_adapt=1 / b_bias=0 / direct=1 / weightb=1 / open_gop=0 / weightp=2 / keyint=250 / keyint_min=25 / scenecut=40 / intra_refresh=0 / rc_lookahead=40 / rc=2pass / mbtree=1 / bitrate=2650 / ratetol=1.0 / qcomp=0.60 / qpmin=0 / qpmax=69 / qpstep=4 / cplxblur=20.0 / qblur=0.5 / vbv_maxrate=62500 / vbv_bufsize=78125 / nal_hrd=none / filler=0 / ip_ratio=1.40 / aq=1:1.00
Language : English
Default : Yes
Forced : No
DURATION : 01:40:04.720000000
NUMBER_OF_FRAMES : 150118
NUMBER_OF_BYTES : 1989251631
_STATISTICS_WRITING_APP : mkvmerge v9.1.0 ('Little Earthquakes') 32bit
_STATISTICS_WRITING_DATE_UTC : 2016-06-10 14:26:54
_STATISTICS_TAGS : BPS DURATION NUMBER_OF_FRAMES NUMBER_OF_BYTES

Audio #1
ID : 2
Format : AC-3
Format/Info : Audio Coding 3
Mode extension : CM (complete main)
Format settings, Endianness : Big
Codec ID : A_AC3
Duration : 1h 40mn
Bit rate mode : Constant
Bit rate : 128 Kbps
Channel(s) : 2 channels
Channel positions : Front: L R
Sampling rate : 48.0 KHz
Compression mode : Lossy
Stream size : 91.6 MiB (4%)
Language : Catalan
Default : Yes
Forced : No

Audio #2
ID : 3
Format : AC-3
Format/Info : Audio Coding 3
Mode extension : CM (complete main)
Format settings, Endianness : Big
Codec ID : A_AC3
Duration : 1h 40mn
Bit rate mode : Constant
Bit rate : 96.0 Kbps
Channel(s) : 1 channel
Channel positions : Front: C
Sampling rate : 48.0 KHz
Compression mode : Lossy
Stream size : 68.7 MiB (3%)
Language : English
Default : No
Forced : No
r5004 l’ha editat per darrera vegada el dia: dv. set. 21, 2018 18:03, en total s’ha editat 1 vegada.


"Hi ha gent a qui no li agrada que es parle, s'escriga o es pense en català. És la mateixa gent a qui no li agrada que es parle, s'escriga o es pense."
Imatge


fisiko
Entrades: 136
Membre des de: dc. des. 15, 2010 22:15
Ubicació: Valéncia, País Valencià
Status: Desconnectat

Re: [ed2k] L'últim dels mohicans

#2

Entrada Autor: fisiko » dv. set. 21, 2018 17:10

podeu possar a compartir-la gràcies per endavant

Avatar de l’usuari

Autor del tema
r5004
Entrades: 13657
Membre des de: dc. nov. 01, 2006 8:08
Status: Connectat

Re: [ed2k] L'últim dels mohicans

#3

Entrada Autor: r5004 » ds. set. 22, 2018 16:12

fisiko ha escrit:
dv. set. 21, 2018 17:10
podeu possar a compartir-la gràcies per endavant
Re-compartida! :D
"Hi ha gent a qui no li agrada que es parle, s'escriga o es pense en català. És la mateixa gent a qui no li agrada que es parle, s'escriga o es pense."
Imatge


fisiko
Entrades: 136
Membre des de: dc. des. 15, 2010 22:15
Ubicació: Valéncia, País Valencià
Status: Desconnectat

Re: [ed2k] L'últim dels mohicans

#4

Entrada Autor: fisiko » dg. set. 23, 2018 22:05

r5004 ha escrit:
ds. set. 22, 2018 16:12
fisiko ha escrit:
dv. set. 21, 2018 17:10
podeu possar a compartir-la gràcies per endavant
Re-compartida! :D
moltissimes gràcies

Respon