[ed2k] Shin Chan: La núvia del futur

Pel·lícules, cicles, etc.

Moderadors: Oliana, Petiso

Respon
Avatar de l’usuari

Autor del tema
r5004
Entrades: 13417
Membre des de: dc. nov. 01, 2006 8:08
Status: Desconnectat

[ed2k] Shin Chan: La núvia del futur

#1

Entrada Autor: r5004 » dt. jul. 07, 2015 21:20

Shin Chan: La núvia del futur

Imatge

Imatge
ccma.cat ha escrit:Un bon dia, en Shin Chan està jugant al parc amb els seus amics i rep la visita de la Tamiko, una noia una mica rara que diu que ve del futur i que el busca a ell per emportar-se'l a la seva època. Finalment aconsegueix endur-se'l, i en Kazama, la Nene, en Masao i en Boo Chan els segueixen. Un cop al futur descobreixen que el món ha canviat molt i que, a causa d'una sèrie de meteorits que han caigut a la Terra, el planeta viu permanentment a les fosques, cosa que propicia que la companyia elèctrica Dinerada i el seu amo, en Masuzo, tinguin un gran poder. La Tamiko és la filla d'aquest home sense pietat i, alhora, és la promesa del Shinnosuke Nohara del futur, que és precisament qui li ha demanat que vaig a buscar el Shin Chan de cinc anys al passat. Tant en Shin Chan com els seus amics es trobaran amb el seu propi jo del futur i faran mans i mànigues per salvar el planeta de les tenebres.
Dades de la publicació:
Vídeo DVBrip Xvid 704x384 a 1310 Kbits/s Qf=0,198 (76% del test de compressibilitat)
Àudio DVBrip Mp3 128kbits/s Abr Estèreo (Català)
Àudio DVBrip Mp3 96kbits/s Abr Mono (Japonès)
Arxiu de 1,04 Gigues (1117229062 bytes)
1 hora, 37 minuts i 24 segons
Hash Md5: 39d05ff80768ade0f6d7aa2ad05618c8
MediaInfo
General
Complete name : D:\Shin Chan La núvia del futur\Shin Chan; La núvia del futur (DVBrip català - japonès per r5004) (TotsRucs.cat).avi
Format : AVI
Format/Info : Audio Video Interleave
File size : 1.04 GiB
Duration : 1h 37mn
Overall bit rate mode : Variable
Overall bit rate : 1 529 Kbps

Video
ID : 0
Format : MPEG-4 Visual
Format profile : Advanced Simple@L5
Format settings, BVOP : 2
Format settings, QPel : No
Format settings, GMC : No warppoints
Format settings, Matrix : Default (H.263)
Codec ID : XVID
Codec ID/Hint : XviD
Duration : 1h 37mn
Bit rate : 1 310 Kbps
Width : 704 pixels
Height : 384 pixels
Display aspect ratio : 1.85:1
Frame rate : 25.000 fps
Color space : YUV
Chroma subsampling : 4:2:0
Bit depth : 8 bits
Scan type : Progressive
Compression mode : Lossy
Bits/(Pixel*Frame) : 0.194
Stream size : 912 MiB (86%)
Writing library : XviD 67

Audio #1
ID : 1
Format : MPEG Audio
Format version : Version 1
Format profile : Layer 3
Mode : Joint stereo
Mode extension : MS Stereo
Codec ID : 55
Codec ID/Hint : MP3
Duration : 1h 37mn
Bit rate mode : Variable
Bit rate : 121 Kbps
Nominal bit rate : 128 Kbps
Channel(s) : 2 channels
Sampling rate : 48.0 KHz
Compression mode : Lossy
Stream size : 84.0 MiB (8%)
Alignment : Aligned on interleaves
Interleave, duration : 24 ms (0.60 video frame)
Interleave, preload duration : 79 ms
Title : cat
Writing library : LAME3.99r
Encoding settings : -m j -V 4 -q 2 -lowpass 17 --abr 128

Audio #2
ID : 2
Format : MPEG Audio
Format version : Version 1
Format profile : Layer 3
Codec ID : 55
Codec ID/Hint : MP3
Duration : 1h 37mn
Bit rate mode : Variable
Bit rate : 78.2 Kbps
Nominal bit rate : 96.0 Kbps
Channel(s) : 1 channel
Sampling rate : 48.0 KHz
Compression mode : Lossy
Stream size : 54.5 MiB (5%)
Alignment : Aligned on interleaves
Interleave, duration : 24 ms (0.60 video frame)
Interleave, preload duration : 206 ms
Title : jap
Writing library : LAME3.99r
Encoding settings : -m m -V 4 -q 2 -lowpass 20.5 --abr 96


"Hi ha gent a qui no li agrada que es parle, s'escriga o es pense en català. És la mateixa gent a qui no li agrada que es parle, s'escriga o es pense."
Imatge

Avatar de l’usuari

Lluc.Masu
Entrades: 14
Membre des de: dl. nov. 11, 2013 18:50
Status: Desconnectat

Re: [ed2k] Shin Chan: La núvia del futur

#2

Entrada Autor: Lluc.Masu » dt. jul. 07, 2015 22:34

Gràcies amic! Descarregant i compartint!!! :D
Imatge


spk2010
Entrades: 3515
Membre des de: dv. gen. 19, 2007 12:20
Ubicació: Baix Montseny
Status: Desconnectat

Re: [ed2k] Shin Chan: La núvia del futur

#3

Entrada Autor: spk2010 » dg. jul. 12, 2015 0:52

Per la nena, gràcies!!
[table][td]RSS amb les notícies de TotsRucs[/td][/table]

Respon