[ed2k] Dave, president per un dia

Pel·lícules, cicles, etc.

Moderadors: Oliana, Petiso

Respon
Avatar de l’usuari

Autor del tema
r5004
Entrades: 13775
Membre des de: dc. nov. 01, 2006 8:08
Status: Desconnectat

[ed2k] Dave, president per un dia

#1

Entrada Autor: r5004 » dc. juny 11, 2014 21:21

Dave, president per un dia

Imatge
Imdb Wikipedia

Versió HD: Imatge

Versió SD: Imatge
tv3.cat ha escrit: Dave, president per un dia (Dave)

Idioma versió original: anglès
Producció: Warner, Northern Light Entertainment i Lauren Shuler-Donner, 1994 (Estats Units)
Direcció: Ivan Reitman
Durada: 102 minuts
Guió: Gary Ross
Fotografia: Adam Greenberg (color)
Música: James Newton Howard
Intèrprets: Kevin Kline (Dave / Bill), Sigourney Weaver (Ellen Mitchell), Frank Langella (Bob Alexander), Kevin Dunn (Alan Reed), Ving Rhames (Duane Stevensen), Ben Kingsley (vicepresident)

Dave Kovic és un home de mitjana edat que té una petita agència d'ocupació i una qualitat especial: s'assembla extraordinàriament al president dels Estats Units. És per això que la Casa Blanca el contracta per fer un dia de suplent. Però coincideix que el president es posa malalt i Dave ha de continuar la substitució desconcertant el país i l'esposa del susbtituït. La situació es complica quan comença a rebre pressions polítiques que xoquen amb els seus principis personals.
Dades de la publicació (Versió HD):
Vídeo BDrip x264 1280x720 a 4173 Kbits/s
Àudio DVBrip Ac3 128kbits/s Estèreo (Català)
Àudio HDrip Ac3 128kbits/s Estèreo (Anglès)
Arxiu de 3,39 Gigues (3650285096 bytes)
1 hora, 49 minuts i 54 segons
MediaInfo
General
Unique ID : 200763794465928509514694263419725053113 (0x9709B34A353CE460B2382BEA242A7CB9)
Complete name : D:\Dave\Dave, president per un dia (BDrip 720p català - anglès per r5004)(TotsRucs.cat).mkv
Format : Matroska
Format version : Version 4 / Version 2
File size : 3.40 GiB
Duration : 1h 49mn
Overall bit rate : 4 428 Kbps
Encoded date : UTC 2014-06-10 11:56:29
Writing application : mkvmerge v6.9.1 ('Blue Panther') 32bit built on Apr 18 2014 18:15:44
Writing library : libebml v1.3.0 + libmatroska v1.4.1

Video
ID : 1
Format : AVC
Format/Info : Advanced Video Codec
Format profile : High@L4.1
Format settings, CABAC : Yes
Format settings, ReFrames : 5 frames
Codec ID : V_MPEG4/ISO/AVC
Duration : 1h 49mn
Bit rate : 4 173 Kbps
Width : 1 280 pixels
Height : 720 pixels
Display aspect ratio : 16:9
Frame rate mode : Constant
Frame rate : 23.976 fps
Color space : YUV
Chroma subsampling : 4:2:0
Bit depth : 8 bits
Scan type : Progressive
Bits/(Pixel*Frame) : 0.189
Stream size : 3.14 GiB (92%)
Writing library : x264 core 125 r2208 d9d2288
Encoding settings : cabac=1 / ref=5 / deblock=1:-1:-1 / analyse=0x3:0x113 / me=umh / subme=7 / psy=1 / psy_rd=1.00:0.00 / mixed_ref=1 / me_range=16 / chroma_me=1 / trellis=1 / 8x8dct=1 / cqm=0 / deadzone=21,11 / fast_pskip=1 / chroma_qp_offset=-2 / threads=12 / lookahead_threads=2 / sliced_threads=0 / nr=0 / decimate=1 / interlaced=0 / bluray_compat=0 / constrained_intra=0 / bframes=3 / b_pyramid=2 / b_adapt=2 / b_bias=0 / direct=3 / weightb=1 / open_gop=0 / weightp=2 / keyint=250 / keyint_min=23 / scenecut=40 / intra_refresh=0 / rc_lookahead=40 / rc=2pass / mbtree=1 / bitrate=4173 / ratetol=1.0 / qcomp=0.60 / qpmin=0 / qpmax=69 / qpstep=4 / cplxblur=20.0 / qblur=0.5 / vbv_maxrate=50000 / vbv_bufsize=50000 / nal_hrd=none / ip_ratio=1.40 / aq=1:1.00
Default : Yes
Forced : No

Audio #1
ID : 2
Format : AC-3
Format/Info : Audio Coding 3
Mode extension : CM (complete main)
Format settings, Endianness : Big
Codec ID : A_AC3
Duration : 1h 49mn
Bit rate mode : Constant
Bit rate : 128 Kbps
Channel(s) : 2 channels
Channel positions : Front: L R
Sampling rate : 48.0 KHz
Bit depth : 16 bits
Compression mode : Lossy
Stream size : 101 MiB (3%)
Language : Catalan
Default : Yes
Forced : No

Audio #2
ID : 3
Format : AC-3
Format/Info : Audio Coding 3
Mode extension : CM (complete main)
Format settings, Endianness : Big
Codec ID : A_AC3
Duration : 1h 49mn
Bit rate mode : Constant
Bit rate : 128 Kbps
Channel(s) : 2 channels
Channel positions : Front: L R
Sampling rate : 48.0 KHz
Bit depth : 16 bits
Compression mode : Lossy
Stream size : 101 MiB (3%)
Language : English
Default : No
Forced : No

Text
ID : 4
Format : UTF-8
Codec ID : S_TEXT/UTF8
Codec ID/Info : UTF-8 Plain Text
Language : English
Default : Yes
Forced : No
Dades de la publicació (Versió SD):
Vídeo HDrip Xvid 720x400 a 1345 Kbits/s Qf=0,199 (70% del test de compressibilitat)
Àudio DVBrip Mp3 128kbits/s Abr Estèreo (Català)
Àudio HDrip Mp3 128kbits/s Abr Estèreo (Anglès)
Arxiu de 1,22 Gigues (1317620432 bytes)
1 hora, 49 minuts i 54 segons
MediaInfo
General
Complete name : D:\Dave\Dave, president per un dia (HDrip català - anglès per r5004)(TotsRucs.cat).avi
Format : AVI
Format/Info : Audio Video Interleave
File size : 1.23 GiB
Duration : 1h 49mn
Overall bit rate mode : Variable
Overall bit rate : 1 599 Kbps

Video
ID : 0
Format : MPEG-4 Visual
Format profile : Advanced Simple@L5
Format settings, BVOP : Yes
Format settings, QPel : No
Format settings, GMC : No warppoints
Format settings, Matrix : Default (H.263)
Codec ID : XVID
Codec ID/Hint : XviD
Duration : 1h 49mn
Bit rate : 1 345 Kbps
Width : 704 pixels
Height : 400 pixels
Display aspect ratio : 16:9
Frame rate : 23.976 fps
Color space : YUV
Chroma subsampling : 4:2:0
Bit depth : 8 bits
Scan type : Progressive
Compression mode : Lossy
Bits/(Pixel*Frame) : 0.199
Stream size : 1.03 GiB (84%)
Writing library : XviD 1.2.1 (UTC 2008-12-04)

Audio #1
ID : 1
Format : MPEG Audio
Format version : Version 1
Format profile : Layer 3
Mode : Joint stereo
Mode extension : MS Stereo
Codec ID : 55
Codec ID/Hint : MP3
Duration : 1h 49mn
Bit rate mode : Variable
Bit rate : 115 Kbps
Nominal bit rate : 128 Kbps
Channel(s) : 2 channels
Sampling rate : 48.0 KHz
Compression mode : Lossy
Stream size : 90.7 MiB (7%)
Alignment : Aligned on interleaves
Interleave, duration : 24 ms (0.58 video frame)
Interleave, preload duration : 176 ms
Title : cat
Writing library : LAME3.99r
Encoding settings : -m j -V 4 -q 2 -lowpass 17 --abr 128

Audio #2
ID : 2
Format : MPEG Audio
Format version : Version 1
Format profile : Layer 3
Mode : Joint stereo
Mode extension : MS Stereo
Codec ID : 55
Codec ID/Hint : MP3
Duration : 1h 49mn
Bit rate mode : Variable
Bit rate : 118 Kbps
Nominal bit rate : 128 Kbps
Channel(s) : 2 channels
Sampling rate : 48.0 KHz
Compression mode : Lossy
Stream size : 92.6 MiB (7%)
Alignment : Aligned on interleaves
Interleave, duration : 24 ms (0.58 video frame)
Interleave, preload duration : 159 ms
Title : eng
Writing library : LAME3.99r
Encoding settings : -m j -V 4 -q 2 -lowpass 17 --abr 128


"Hi ha gent a qui no li agrada que es parle, s'escriga o es pense en català. És la mateixa gent a qui no li agrada que es parle, s'escriga o es pense."
Imatge

Respon