[ed2k] Capità Phillips

Pel·lícules, cicles, etc.

Moderadors: Oliana, Petiso

Respon
Avatar de l’usuari

Autor del tema
r5004
Entrades: 12804
Membre des de: dc. nov. 01, 2006 8:08
Status: Desconnectat

[ed2k] Capità Phillips

#1

Entrada Autor: r5004 » dl. maig 14, 2018 20:01

Capità Phillips

Imatge
Imdb Viquipèdia

Imatge
ccma.cat ha escrit:Capità Phillips (Captain Phillips)
Direcció: Paul Greengrass
Guió: Billy Ray (Llibre: Richard Phillips, Stephan Talty)
Producció: Columbia Pictures / Michael De Luca Productions / Scott Rudin Productions / Trigger Street Productions
Durada: 128 minuts
Any de producció: 2013
Fotografía: Barry Ackroyd
Música: Henry Jackman
Intèrprets: Tom Hanks, Barkhad Abdi, Mahat M. Ali, Barkhad Abdirahman, Faysal Ahmed, Michael Chernus, Catherine Keener, David Warshofsky, Corey Johnson, Chris Mulkey, Max Martini, Yul Vazquez, Omar Berdouni

L'any 2009, en aigües internacionals a 145 milles de la costa de Somàlia, el vaixell mercant "Maersk Alabama" és abordat i retingut per pirates somalis. Esdevingué, així, el primer vaixell nord-americà segrestat en els darrers dos-cents anys.
Dades de la publicació:
Vídeo HDTVrip x264 1920x800 a 4453 Kbits/s Qf=0.116 (Crf=20)
Àudio HDTVrip Ac3 128kbits/s Estèreo (Català)
Àudio HDTVrip Ac3 128kbits/s Mono (Anglès)
Àudio HDTVrip Ac3 128kbits/s Mono (Audiodescripció)
Arxiu de 4,12 Gigues (4432460878 bytes)
2 hores, 2 minuts i 7 segons
Hash Md5: 619cc4a33dfc930a90bc07c2759b860e
MediaInfo
General
Unique ID : 318965112947956522446167104232166621111 (0xEFF6723BBEA855CD618FD0A0F5397FB7)
Complete name : D:\capita Phillips\Capità Phillips (HDTVrip 1080p català - anglès - audiodescripció per r5004) (TotsRucs.cat).mkv
Format : Matroska
Format version : Version 2
File size : 4.13 GiB
Duration : 2 h 2 min
Overall bit rate : 4 839 kb/s
Encoded date : UTC 2018-05-13 15:11:20
Writing application : mkvmerge v22.0.0 ('At The End Of The World') 64-bit
Writing library : libebml v1.3.5 + libmatroska v1.4.8

Video
ID : 1
Format : AVC
Format/Info : Advanced Video Codec
Format profile : High@L4.1
Format settings, CABAC : Yes
Format settings, RefFrames : 5 frames
Codec ID : V_MPEG4/ISO/AVC
Duration : 2 h 2 min
Bit rate : 4 453 kb/s
Width : 1 920 pixels
Height : 800 pixels
Display aspect ratio : 2.40:1
Frame rate mode : Constant
Frame rate : 25.000 FPS
Color space : YUV
Chroma subsampling : 4:2:0
Bit depth : 8 bits
Scan type : Progressive
Bits/(Pixel*Frame) : 0.116
Stream size : 3.80 GiB (92%)
Writing library : x264 core 155 r2901 7d0ff22
Encoding settings : cabac=1 / ref=5 / deblock=1:-1:-1 / analyse=0x3:0x133 / me=umh / subme=9 / psy=1 / psy_rd=1.00:0.15 / mixed_ref=1 / me_range=16 / chroma_me=1 / trellis=2 / 8x8dct=1 / cqm=0 / deadzone=21,11 / fast_pskip=1 / chroma_qp_offset=-3 / threads=12 / lookahead_threads=1 / sliced_threads=0 / nr=0 / decimate=1 / interlaced=0 / bluray_compat=0 / constrained_intra=0 / bframes=3 / b_pyramid=2 / b_adapt=2 / b_bias=0 / direct=3 / weightb=1 / open_gop=0 / weightp=2 / keyint=250 / keyint_min=25 / scenecut=40 / intra_refresh=0 / rc_lookahead=60 / rc=crf / mbtree=1 / crf=20.0 / qcomp=0.60 / qpmin=0 / qpmax=69 / qpstep=4 / vbv_maxrate=62500 / vbv_bufsize=78125 / crf_max=0.0 / nal_hrd=none / filler=0 / ip_ratio=1.40 / aq=1:1.00
Default : Yes
Forced : No

Audio #1
ID : 2
Format : AC-3
Format/Info : Audio Coding 3
Format settings, Endianness : Big
Codec ID : A_AC3
Duration : 2 h 2 min
Bit rate mode : Constant
Bit rate : 128 kb/s
Channel(s) : 2 channels
Channel positions : Front: L R
Sampling rate : 48.0 kHz
Frame rate : 31.250 FPS (1536 SPF)
Bit depth : 16 bits
Compression mode : Lossy
Stream size : 112 MiB (3%)
Language : Catalan
Service kind : Complete Main
Default : Yes
Forced : No

Audio #2
ID : 3
Format : AC-3
Format/Info : Audio Coding 3
Format settings, Endianness : Big
Codec ID : A_AC3
Duration : 2 h 2 min
Bit rate mode : Constant
Bit rate : 128 kb/s
Channel(s) : 1 channel
Channel positions : Front: C
Sampling rate : 48.0 kHz
Frame rate : 31.250 FPS (1536 SPF)
Bit depth : 16 bits
Compression mode : Lossy
Stream size : 112 MiB (3%)
Language : English
Service kind : Complete Main
Default : No
Forced : No

Audio #3
ID : 4
Format : AC-3
Format/Info : Audio Coding 3
Format settings, Endianness : Big
Codec ID : A_AC3
Duration : 2 h 2 min
Bit rate mode : Constant
Bit rate : 128 kb/s
Channel(s) : 1 channel
Channel positions : Front: C
Sampling rate : 48.0 kHz
Frame rate : 31.250 FPS (1536 SPF)
Bit depth : 16 bits
Compression mode : Lossy
Stream size : 112 MiB (3%)
Language : Catalan
Service kind : Complete Main
Default : No
Forced : No


"Hi ha gent a qui no li agrada que es parle, s'escriga o es pense en català. És la mateixa gent a qui no li agrada que es parle, s'escriga o es pense."
Imatge
Ripejos parats per unes setmanes. :cry:


XBG5
Entrades: 52
Membre des de: dl. ago. 22, 2016 22:18
Status: Desconnectat

Re: [ed2k] Capità Phillips

#2

Entrada Autor: XBG5 » dt. maig 15, 2018 8:27

Moltes gràcies!


Ferriol
Entrades: 996
Membre des de: dv. feb. 09, 2007 13:18
Status: Desconnectat

Re: [ed2k] Capità Phillips

#3

Entrada Autor: Ferriol » dv. maig 18, 2018 15:01

Gràcies, baixant i compartint :wink:
Salut i sort
Imatge

Respon