[ed2k] Verdaguer, Ombres i Maduixes

Música, concerts, videoclips, sessions,...

Moderadors: xordi, mario1911

Respon
Avatar de l’usuari

Autor del tema
r5004
Entrades: 13412
Membre des de: dc. nov. 01, 2006 8:08
Status: Desconnectat

[ed2k] Verdaguer, Ombres i Maduixes

#1

Entrada Autor: r5004 » dg. des. 17, 2017 12:11

Verdaguer, Ombres i Maduixes

Imatge

Imatge
L'epg ha escrit:Verdaguer, ombres i maduixes és un musical singular. Un Verdaguer jove, terrenal i líric, s'acara al mirall del temps implacable d'un Verdaguer vell, savi i desenganyat. Obeses posa música a aquestes tensions vitals amb la seva coneguda passió per descobrir nous territoris acústics.
ccma.cat ha escrit:El Teatre Romea presenta "Verdaguer, ombres i maduixes", una òpera rock que confronta els poemes de joventut de mossèn Cinto Verdaguer amb els que va escriure de gran, com a poeta reconegut i també proscrit. Obeses, el grup de rock que, com Verdaguer, és osonenc, ha compost la música. L'òpera confronta l'amor sensual i l'espiritualitat de la poesia
beteve.cat" ha escrit:Obeses s'endinsa en la poètica de Jacint Verdaguer amb la seva primera òpera rock, 'Verdaguer, ombres i maduixes'. El cantant del grup, Arnau Tordera, és un dels intèrprets de l'espectacle. Obeses signa la partitura d'un llibret de Pep Paré i Pere Tió, experts en l'obra del gran poeta. 'Verdaguer, ombres i maduixes' és una òpera rock, amb música en directe, inspirada en poemes i textos de Jacint Verdaguer. Les maduixes i les ombres simbolitzen la tensió entre un Jacint Verdaguer jove, terrenal i il·lusionat i el poeta vell, savi però desenganyat. Arnau Tordera, cantant dels Obeses, encarna el primer, mentre que Ferran Frauca és mossèn Cinto de gran. L'argument se centra en un episodi relativament breu de la vida del poeta de Folgueroles: l'enamorament d'una noia del poble i el posterior desengany, però des de la perspectiva del Verdaguer ja vell. El musical combina poesia de joventut de Verdaguer, en alguns casos inèdita, amb obres de maduresa, com 'L'Atlàntida'. La música d'Obeses bascula entre el pop i el rock simfònic.

Dades de la publicació:
Vídeo DVBrip Xvid 704x304 a 1075 Kbits/s Qf=0,201 (98% del test de compressibilitat)
Àudio DVB Mp2 192kbits/s Estèreo (sense re-compressió)
872 Megues (914644094 bytes)
1 hora, 35 minuts i 45 segons
Hash Md5: 623d0ffe1a34362e79d949e413fac2f7
MediaInfo
General
Complete name : D:\Verdaguer, Ombres i Maduixes\Verdaguer, Ombres i Maduixes (DVBrip per r5004)(TotsRucs.cat).avi
Format : AVI
Format/Info : Audio Video Interleave
File size : 872 MiB
Duration : 1 h 35 min
Overall bit rate : 1 274 kb/s

Video
ID : 0
Format : MPEG-4 Visual
Format profile : Advanced Simple@L5
Format settings, BVOP : 2
Format settings, QPel : No
Format settings, GMC : No warppoints
Format settings, Matrix : Default (H.263)
Codec ID : XVID
Codec ID/Hint : XviD
Duration : 1 h 35 min
Bit rate : 1 076 kb/s
Width : 704 pixels
Height : 304 pixels
Display aspect ratio : 2.35:1
Frame rate : 25.000 FPS
Color space : YUV
Chroma subsampling : 4:2:0
Bit depth : 8 bits
Scan type : Progressive
Compression mode : Lossy
Bits/(Pixel*Frame) : 0.201
Stream size : 737 MiB (84%)
Writing library : XviD 67

Audio
ID : 1
Format : MPEG Audio
Format version : Version 1
Format profile : Layer 2
Codec ID : 50
Duration : 1 h 35 min
Bit rate mode : Constant
Bit rate : 192 kb/s
Channel(s) : 2 channels
Sampling rate : 48.0 kHz
Compression mode : Lossy
Stream size : 131 MiB (15%)
Alignment : Aligned on interleaves
Interleave, duration : 160 ms (4.00 video frames)
Interleave, preload duration : 216 ms
Title : cat


"Hi ha gent a qui no li agrada que es parle, s'escriga o es pense en català. És la mateixa gent a qui no li agrada que es parle, s'escriga o es pense."
Imatge


d1k2
Entrades: 177
Membre des de: ds. maig 24, 2014 9:07
Status: Desconnectat

Re: [ed2k] Verdaguer, Ombres i Maduixes

#2

Entrada Autor: d1k2 » dl. des. 18, 2017 21:04

gràcies r5004.

...no hi ha prou presons per tancar tanta dignitat!

Respon