[ed2k] Concert 50 anys de Corals infantils de Catalunya

Música, concerts, videoclips, sessions,...

Moderadors: xordi, mario1911

Respon
Avatar de l’usuari

Autor del tema
r5004
Entrades: 13412
Membre des de: dc. nov. 01, 2006 8:08
Status: Desconnectat

[ed2k] Concert 50 anys de Corals infantils de Catalunya

#1

Entrada Autor: r5004 » dl. maig 22, 2017 19:34

Concert 50 anys de Corals infantils de Catalunya

Imatge

Imatge
L'EPG ha escrit:Més de 100 corals infantils de tot Catalunya participen en un esdeveniment únic on 2.500 cantaires, nens i nenes, ofereixen un concert al Palau Sant Jordi de Barcelona amb motiu del 50è aniversari d'existència de les Corals Infantils a Catalunya.
Dades de la publicació:
Vídeo DVBrip Xvid 704x384 a 1860 Kbits/s Qf=0,282 (60% del test de compressibilitat)
Àudio DVB Mp2 192kbits/s Estèreo (sense re-compressió)
Arxiu de 1,53 Gigues (1645071534 bytes)
1 hora, 46 minuts i 39 segons
Hash Md5: da33ab4b79eef2f128e6c95893394ef2
MediaInfo
General
Complete name : D:\Concert 50 anys de Corals infantils de Catalunya\Concert 50 anys de Corals infantils de Catalunya (DVBrip català) per r5004 (totsrucs.cat).avi
Format : AVI
Format/Info : Audio Video Interleave
File size : 1.53 GiB
Duration : 1 h 46 min
Overall bit rate : 2 057 kb/s

Video
ID : 0
Format : MPEG-4 Visual
Format profile : Advanced Simple@L5
Format settings, BVOP : 2
Format settings, QPel : No
Format settings, GMC : No warppoints
Format settings, Matrix : Default (H.263)
Codec ID : XVID
Codec ID/Hint : XviD
Duration : 1 h 46 min
Bit rate : 1 859 kb/s
Width : 704 pixels
Height : 384 pixels
Display aspect ratio : 1.85:1
Frame rate : 25.000 FPS
Color space : YUV
Chroma subsampling : 4:2:0
Bit depth : 8 bits
Scan type : Progressive
Compression mode : Lossy
Bits/(Pixel*Frame) : 0.275
Stream size : 1.38 GiB (90%)
Writing library : XviD 67

Audio
ID : 1
Format : MPEG Audio
Format version : Version 1
Format profile : Layer 2
Codec ID : 50
Duration : 1 h 46 min
Bit rate mode : Constant
Bit rate : 192 kb/s
Channel(s) : 2 channels
Sampling rate : 48.0 kHz
Compression mode : Lossy
Stream size : 146 MiB (9%)
Alignment : Aligned on interleaves
Interleave, duration : 160 ms (4.00 video frames)
Interleave, preload duration : 216 ms
Title : cat


"Hi ha gent a qui no li agrada que es parle, s'escriga o es pense en català. És la mateixa gent a qui no li agrada que es parle, s'escriga o es pense."
Imatge

Respon