[ed2k] Godzilla

Pel·lícules, cicles, etc.

Moderadors: Oliana, Petiso

Respon
Avatar de l’usuari

Autor del tema
r5004
Entrades: 12906
Membre des de: dc. nov. 01, 2006 8:08
Status: Desconnectat

[ed2k] Godzilla

#1

Entrada Autor: r5004 » dg. set. 23, 2018 19:00

Godzilla

Imatge
Imdb Viquipèdia

Imatge
ccma.cat ha escrit:Godzilla (Godzilla)
Direcció: Gareth Edwards
Guió: Max Borenstein (Història: Dave Callaham)
Producció: Legendary Pictures / Warner Bros
Any de producció: 2014
Durada: 117 minuts
Fotografía: Seamus McGarvey
Música: Alexandre Desplat
Intèrprets: Aaron Taylor-Johnson, Ken Watanabe, Elizabeth Olsen, David Strathairn, Bryan Cranston, Sally Hawkins, Juliette Binoche, CJ Adams, Richard T. Jones, Al Sapienza, Patrick Sabongui

Un monstre marí prehistòric conegut com a Godzilla, originari d'una era en què la Terra tenia un elevat nivell de radiació i que encara s'alimenta de radioactivitat, ha sobreviscut amagat fins als nostres dies tot i els intents d'eliminar-lo als anys 50. Quan dos monstres malvats de característiques similars es desperten després d'un llarg període de letargia, l'enfrontament entre el Godzilla i aquests éssers posa en perill la humanitat.
Dades de la publicació:
Vídeo HDTVrip x264 1280x528 a 2240 Kbits/s Qf=0.133 (Crf=18)
Àudio HDTVrip Ac3 128kbits/s Estèreo (Català)
Àudio HDTVrip Ac3 128kbits/s Mono (Anglès)
Àudio HDTVrip Ac3 128kbits/s Mono (Audiodescripció)
Arxiu de 2,04 Gigues (2197274052 bytes)
1 hora, 51 minuts i 34 segons
Hash Md5: 59bd914ee1a1951def5664d883249962
MediaInfo
General
Unique ID : 285736226417955487282805904677411709656 (0xD6F6CBA39FC30757B0C93363AD7B62D8)
Complete name : D:\Godzilla\Godzilla (HDTVrip 720p català - anglès - audiodescripció per r5004) (TotsRucs.cat).mkv
Format : Matroska
Format version : Version 2
File size : 2.05 GiB
Duration : 1 h 51 min
Overall bit rate : 2 626 kb/s
Encoded date : UTC 2018-09-23 11:16:29
Writing application : mkvmerge v26.0.0 ('In The Game') 64-bit
Writing library : libebml v1.3.6 + libmatroska v1.4.9

Video
ID : 1
Format : AVC
Format/Info : Advanced Video Codec
Format profile : High@L4.1
Format settings, CABAC : Yes
Format settings, RefFrames : 8 frames
Codec ID : V_MPEG4/ISO/AVC
Duration : 1 h 51 min
Bit rate : 2 240 kb/s
Width : 1 280 pixels
Height : 528 pixels
Display aspect ratio : 2.40:1
Frame rate mode : Constant
Frame rate : 25.000 FPS
Color space : YUV
Chroma subsampling : 4:2:0
Bit depth : 8 bits
Scan type : Progressive
Bits/(Pixel*Frame) : 0.133
Stream size : 1.75 GiB (85%)
Writing library : x264 core 155 r2901 7d0ff22
Encoding settings : cabac=1 / ref=8 / deblock=1:-1:-1 / analyse=0x3:0x133 / me=umh / subme=9 / psy=1 / psy_rd=1.00:0.15 / mixed_ref=1 / me_range=16 / chroma_me=1 / trellis=2 / 8x8dct=1 / cqm=0 / deadzone=21,11 / fast_pskip=1 / chroma_qp_offset=-3 / threads=12 / lookahead_threads=1 / sliced_threads=0 / nr=0 / decimate=1 / interlaced=0 / bluray_compat=0 / constrained_intra=0 / bframes=3 / b_pyramid=2 / b_adapt=2 / b_bias=0 / direct=3 / weightb=1 / open_gop=0 / weightp=2 / keyint=250 / keyint_min=25 / scenecut=40 / intra_refresh=0 / rc_lookahead=60 / rc=crf / mbtree=1 / crf=18.0 / qcomp=0.60 / qpmin=0 / qpmax=69 / qpstep=4 / vbv_maxrate=62500 / vbv_bufsize=78125 / crf_max=0.0 / nal_hrd=none / filler=0 / ip_ratio=1.40 / aq=1:1.00
Default : Yes
Forced : No

Audio #1
ID : 2
Format : AC-3
Format/Info : Audio Coding 3
Format settings, Endianness : Big
Codec ID : A_AC3
Duration : 1 h 51 min
Bit rate mode : Constant
Bit rate : 128 kb/s
Channel(s) : 2 channels
Channel positions : Front: L R
Sampling rate : 48.0 kHz
Frame rate : 31.250 FPS (1536 SPF)
Bit depth : 16 bits
Compression mode : Lossy
Stream size : 102 MiB (5%)
Language : Catalan
Service kind : Complete Main
Default : Yes
Forced : No

Audio #2
ID : 3
Format : AC-3
Format/Info : Audio Coding 3
Format settings, Endianness : Big
Codec ID : A_AC3
Duration : 1 h 51 min
Bit rate mode : Constant
Bit rate : 128 kb/s
Channel(s) : 1 channel
Channel positions : Front: C
Sampling rate : 48.0 kHz
Frame rate : 31.250 FPS (1536 SPF)
Bit depth : 16 bits
Compression mode : Lossy
Stream size : 102 MiB (5%)
Language : English
Service kind : Complete Main
Default : No
Forced : No

Audio #3
ID : 4
Format : AC-3
Format/Info : Audio Coding 3
Format settings, Endianness : Big
Codec ID : A_AC3
Duration : 1 h 51 min
Bit rate mode : Constant
Bit rate : 128 kb/s
Channel(s) : 1 channel
Channel positions : Front: C
Sampling rate : 48.0 kHz
Frame rate : 31.250 FPS (1536 SPF)
Bit depth : 16 bits
Compression mode : Lossy
Stream size : 102 MiB (5%)
Service kind : Complete Main
Default : No
Forced : No


"Hi ha gent a qui no li agrada que es parle, s'escriga o es pense en català. És la mateixa gent a qui no li agrada que es parle, s'escriga o es pense."
Imatge


XBG5
Entrades: 54
Membre des de: dl. ago. 22, 2016 22:18
Status: Desconnectat

Re: [ed2k] Godzilla

#2

Entrada Autor: XBG5 » dg. set. 23, 2018 21:08

Moltes gràcies!


inuyasha000
Entrades: 191
Membre des de: dj. set. 29, 2011 23:01
Status: Desconnectat

Re: [ed2k] Godzilla

#3

Entrada Autor: inuyasha000 » dl. set. 24, 2018 15:47

gracies :D

Avatar de l’usuari

kivar
Entrades: 483
Membre des de: dg. gen. 06, 2008 10:18
Ubicació: Alacant
Status: Desconnectat

Re: [ed2k] Godzilla

#4

Entrada Autor: kivar » dl. set. 24, 2018 20:11

Uoooohhhh. Una més de Godzilla en català. Gràcies.

Respon