[ed2k] La guerra inacabada

Documentals

Moderadors: arakelov, Petiso, Nava

Respon
Avatar de l’usuari

Autor del tema
r5004
Entrades: 12839
Membre des de: dc. nov. 01, 2006 8:08
Status: Desconnectat

[ed2k] La guerra inacabada

#1

Entrada Autor: r5004 » dl. jul. 02, 2018 18:51

La guerra inacabada

Imatge

Imatge
ccma.cat ha escrit:A Catalunya encara hi ha 5.063 famílies que reclamen un parent desaparegut durant la Guerra Civil. Per identificar el major nombre de casos possible i revertir aquesta situació, al juliol del 2017, es va endegar un pla d'excavació de les fosses de la Guerra Civil Espanyola que encara queden a Catalunya, i va crear el Programa d'Identificació Genètica, amb un banc que permet creuar les dades familiars amb les restes que es vagin localitzant. Actualment hi ha unes 500 fosses localitzades. Un equip de TV3 ha seguit durant els últims mesos la feina d'equips d'antropòlegs, arqueòlegs i genetistes que obren les fosses, n'extreuen els cadàvers i n'intenten identificar les restes i atribuir-les als desapareguts. El resultat ha estat "La guerra inacabada", una docuficció presentada per Antoni Tortajada, que explica cinc històries que hi ha darrere d'aquestes fosses. Per fer-ho, compta amb l'ajuda de testimonis i familiars que, a través d'imatges ficcionades han reconstruït com van passar les morts i assassinats.
Dades de la publicació:
Vídeo HDTVrip x264 1280x720 a 3482 Kbits/s Qf=0.151 (Crf=18)
Àudio HDTVrip Ac3 128kbits/s Estèreo
Arxiu de 2,41 Gigues (2589779443 bytes)
1 hora, 35 minuts i 36 segons
Hash Md5: ab6abbcb40bc5a3e21e257e775aeadbd
MediaInfo
General
Unique ID : 217410143750842688293206315402585431316 (0xA38FABACDB37DB515A2D5A99D83FDD14)
Complete name : D:\guerra inacabada\La guerra inacabada (HDTVrip 720p català per r5004) (TotsRucs.cat).mkv
Format : Matroska
Format version : Version 2
File size : 2.41 GiB
Duration : 1 h 35 min
Overall bit rate : 3 612 kb/s
Encoded date : UTC 2018-07-02 17:29:05
Writing application : mkvmerge v22.0.0 ('At The End Of The World') 64-bit
Writing library : libebml v1.3.5 + libmatroska v1.4.8

Video
ID : 1
Format : AVC
Format/Info : Advanced Video Codec
Format profile : High@L4.1
Format settings, CABAC : Yes
Format settings, RefFrames : 8 frames
Codec ID : V_MPEG4/ISO/AVC
Duration : 1 h 35 min
Bit rate : 3 482 kb/s
Width : 1 280 pixels
Height : 720 pixels
Display aspect ratio : 16:9
Frame rate mode : Constant
Frame rate : 25.000 FPS
Color space : YUV
Chroma subsampling : 4:2:0
Bit depth : 8 bits
Scan type : Progressive
Bits/(Pixel*Frame) : 0.151
Stream size : 2.33 GiB (96%)
Writing library : x264 core 155 r2901 7d0ff22
Encoding settings : cabac=1 / ref=8 / deblock=1:-1:-1 / analyse=0x3:0x133 / me=umh / subme=9 / psy=1 / psy_rd=1.00:0.15 / mixed_ref=1 / me_range=16 / chroma_me=1 / trellis=2 / 8x8dct=1 / cqm=0 / deadzone=21,11 / fast_pskip=1 / chroma_qp_offset=-3 / threads=12 / lookahead_threads=1 / sliced_threads=0 / nr=0 / decimate=1 / interlaced=0 / bluray_compat=0 / constrained_intra=0 / bframes=3 / b_pyramid=2 / b_adapt=2 / b_bias=0 / direct=3 / weightb=1 / open_gop=0 / weightp=2 / keyint=250 / keyint_min=25 / scenecut=40 / intra_refresh=0 / rc_lookahead=60 / rc=crf / mbtree=1 / crf=18.0 / qcomp=0.60 / qpmin=0 / qpmax=69 / qpstep=4 / vbv_maxrate=62500 / vbv_bufsize=78125 / crf_max=0.0 / nal_hrd=none / filler=0 / ip_ratio=1.40 / aq=1:1.00
Default : Yes
Forced : No

Audio
ID : 2
Format : AC-3
Format/Info : Audio Coding 3
Format settings, Endianness : Big
Codec ID : A_AC3
Duration : 1 h 35 min
Bit rate mode : Constant
Bit rate : 128 kb/s
Channel(s) : 2 channels
Channel positions : Front: L R
Sampling rate : 48.0 kHz
Frame rate : 31.250 FPS (1536 SPF)
Bit depth : 16 bits
Compression mode : Lossy
Stream size : 87.5 MiB (4%)
Language : Catalan
Service kind : Complete Main
Default : Yes
Forced : No


"Hi ha gent a qui no li agrada que es parle, s'escriga o es pense en català. És la mateixa gent a qui no li agrada que es parle, s'escriga o es pense."
Imatge

Respon