eac3 i els clics

Per resoldre dubtes de caire tècnic, relacionades o no amb el món del ripeig.

Moderadors: Petiso, Ayu

Avatar de l’usuari

Autor del tema
Petiso
Site Admin
Site Admin
Entrades: 15945
Membre des de: dv. oct. 06, 2006 13:13
Status: Desconnectat

eac3 i els clics

#1

Entrada Autor: Petiso » dj. set. 24, 2015 17:08

r5004 ha escrit:Jo també tinc "clics". No ho he comprovat, però diria que si descomprimeixo l'àudio (l' E-AC3) amb el eac3to tinc clics, en canvi si aquest mateix àudio el comprimeixo a mp3 o a ac3 amb el MeGui no tinc clics. Ahir vaig mirar-me el rip que he fet de "13 dies d'octubre" i no hi ha cap "clic". Si vull fer servir l'àudio del 3HD per fer el muntatge de Chuck llavors hi apareixen els "clics".
La meva hipòtesi és que depèn del còdec que s'utilitzi per descomprimir l'àudio.
He fet un experiment.

He agafat un àudio eac3 a l'atzar que "te clics".

He passat el eac3 a wav amb el VideoRedo
Resultat: te clics. El primer al minut 3:48

He passat el eac3 a wav amb el eac3to
Resultat: te clics.
Dona errors al fer la conversió.

Codi: Selecciona’ls tots

D:\TV\eac3to>eac3to.exe "Y:\HD\TDP\2015-09-20_20-14-01_TV3HD (AC3,cat)_Salpem - Roses_1.eac3" "Y:\HD\TDP\2015-09-20_20-14-01_TV3HD (AC3,cat)_Salpem - Roses_1.wav"
E-AC3, 2.0 channels, 0:25:17, 128kbps, 48kHz, dialnorm: -23dB
Removing E-AC3 dialog normalization...
Decoding with libav/ffmpeg...
Reducing depth from 64 to 24 bits...
Writing WAV...
Creating file "Y:\HD\TDP\2015-09-20_20-14-01_TV3HD (AC3,cat)_Salpem - Roses_1.wav"...
libav exponent out-of-range
libav error decoding the audio block
libav exponent out-of-range
libav error decoding the audio block
Clipping detected, a 2nd pass will be necessary.
libav exponent out-of-range
libav error decoding the audio block
libav exponent out-of-range
libav error decoding the audio block
libav invalid spectral extension copy start bin (61 >= 61)
libav error decoding the audio block
libav exponent out-of-range
libav error decoding the audio block
libav exponent out-of-range
libav error decoding the audio block
libav exponent out-of-range
libav error decoding the audio block
libav exponent out-of-range
libav error decoding the audio block
Starting 2nd pass...
Removing E-AC3 dialog normalization...
Decoding with libav/ffmpeg...
Reducing depth from 64 to 24 bits...
Writing WAV...
Applying -9.7dB gain...
Creating file "Y:\HD\TDP\2015-09-20_20-14-01_TV3HD (AC3,cat)_Salpem - Roses_1.wav"...
libav exponent out-of-range
libav error decoding the audio block
libav exponent out-of-range
libav error decoding the audio block
libav exponent out-of-range
libav error decoding the audio block
libav exponent out-of-range
libav error decoding the audio block
libav invalid spectral extension copy start bin (61 >= 61)
libav error decoding the audio block
libav exponent out-of-range
libav error decoding the audio block
libav exponent out-of-range
libav error decoding the audio block
libav exponent out-of-range
libav error decoding the audio block
libav exponent out-of-range
libav error decoding the audio block
eac3to processing took 44 seconds.
Done.

D:\TV\eac3to>
Escolto el eac3 directament amb el VideoRedo
Resultat: escolto els clics (als mateixos llocs que els anteriors).

Converteixo el eac3 a ace/mp3/whatever amb el MeGui (NicAudio)
Resultat: d'un eac3 de 25 minuts em surt un àudio de 1h41 minuts ?¿?¿??¿? que no es sent res. Em detecta el eac3 com si fos de 6 canals (quan és un 2.0)

Converteixo el eac3 a ace amb el MeGui (LWLibavAudioSource)
Resultat: escolto els clics (als mateixos llocs que els anteriors).

Converteixo el eac3 a wav amb el MeGui (FFAudioSourde)
Resultat: escolto els clics (als mateixos llocs que els anteriors).

Converteixo el eac3 a wav amb el ffmpeg
Resultat: d'un eac3 de 25 minuts em deetecta un àudio de 1h41 minuts com si fos de 6 canals (quan és un 2.0)
[hide]

Codi: Selecciona’ls tots

ffmpeg.exe -i "Y:\HD\TDP\2015-09-20_20-14-01_TV3HD (AC3,cat)_Salpem - Roses_1.ac3" "Y:\HD\TDP\2015-09-20_20-14-01_TV3HD (AC3,cat)_Salpem - RosesFF.wav"
ffmpeg version N-75499-g7179add Copyright (c) 2000-2015 the FFmpeg developers
  built with gcc 4.9.3 (GCC)
  configuration: --enable-gpl --enable-version3 --disable-w32threads --enable-avisynth --enable-bzlib --enable-fontconfig --enable-frei0r --enable-gnutls --enable-iconv --enable-libass --enable-libbluray --enable-libbs2b --enable-libcaca --enable-libdcadec --enable-libfreetype --enable-libgme --enable-libgsm --enable-libilbc --enable-libmodplug --enable-libmp3lame --enable-libopencore-amrnb --enable-libopencore-amrwb --enable-libopenjpeg --enable-libopus --enable-librtmp --enable-libschroedinger --enable-libsoxr --enable-libspeex --enable-libtheora --enable-libtwolame --enable-libvidstab --enable-libvo-aacenc --enable-libvo-amrwbenc --enable-libvorbis --enable-libvpx --enable-libwavpack --enable-libwebp --enable-libx264 --enable-libx265 --enable-libxavs --enable-libxvid --enable-lzma --enable-decklink --enable-zlib
  libavutil      55.  2.100 / 55.  2.100
  libavcodec     57.  3.100 / 57.  3.100
  libavformat    57.  2.100 / 57.  2.100
  libavdevice    57.  0.100 / 57.  0.100
  libavfilter     6.  8.100 /  6.  8.100
  libswscale      4.  0.100 /  4.  0.100
  libswresample   2.  0.100 /  2.  0.100
  libpostproc    54.  0.100 / 54.  0.100
[ac3 @ 0000000002de0380] Estimating duration from bitrate, this may be inaccurat
e
Input #0, ac3, from 'Y:\HD\TDP\2015-09-20_20-14-01_TV3HD (AC3,cat)_Salpem - Rose
s_1.ac3':
  Duration: 01:41:09.12, start: 0.000000, bitrate: 447 kb/s
    Stream #0:0: Audio: ac3, 44100 Hz, 5.1(side), fltp, 448 kb/s
Output #0, wav, to 'Y:\HD\TDP\2015-09-20_20-14-01_TV3HD (AC3,cat)_Salpem - Roses
FF.wav':
  Metadata:
    ISFT            : Lavf57.2.100
    Stream #0:0: Audio: pcm_s16le ([1][0][0][0] / 0x0001), 44100 Hz, 5.1(side),
s16, 4233 kb/s
    Metadata:
      encoder         : Lavc57.3.100 pcm_s16le
Stream mapping:
  Stream #0:0 -> #0:0 (ac3 (native) -> pcm_s16le (native))
[/hide]

Segueixo provant ......


Imatge Imatge

Avatar de l’usuari

conradtgn
Entrades: 4522
Membre des de: dt. gen. 22, 2008 17:24
Ubicació: Tarragona
Status: Desconnectat

Re: eac3 i els clics

#2

Entrada Autor: conradtgn » dj. set. 24, 2015 18:08

Per convertir àudio amb el MeGUI canvia el decoder (zona àudio --> pestanya config --> LWLibavAudioSource), llavors ja agafa el nombre de canals i durada correctes.
Imatge

Avatar de l’usuari

r5004
Entrades: 13348
Membre des de: dc. nov. 01, 2006 8:08
Status: Desconnectat

Re: eac3 i els clics

#3

Entrada Autor: r5004 » dj. set. 24, 2015 18:25

Per comprimir l'àudio del "Tocats de l'ala" vaig utilitzar el Bassaudio. Però no recordo com es comporta amb un e-ac3 5.1 (si em falla, canvio el còdec i llestos).
Imatge
"Hi ha gent a qui no li agrada que es parle, s'escriga o es pense en català. És la mateixa gent a qui no li agrada que es parle, s'escriga o es pense."
Imatge

Avatar de l’usuari

Autor del tema
Petiso
Site Admin
Site Admin
Entrades: 15945
Membre des de: dv. oct. 06, 2006 13:13
Status: Desconnectat

Re: eac3 i els clics

#4

Entrada Autor: Petiso » dj. set. 24, 2015 18:32

El eac3 és 2.0!

He provat amb les 5 opcions:
NicAudio -> no detecta be el format
LWLibavAudioSource -> Clics
FFAudioSourde -> Clics
BassAudio -> Es penja no pot obrir el fitxer amb el BassAudio, i ho fa amb el NicAudio
DirectShow -> Es penja
BassAudio

Codi: Selecciona’ls tots

--[Information] [24/09/2015 19:31:40] Trying to open the file with BassAudioSource()
--[Information] [24/09/2015 19:31:41] Failed opening the file with BassAudioSource(). bassAudioSource: File could not be opened!
He pujat el eac3 al 5 ........ test.eac3
Per si podeu/voleu provar.
Imatge Imatge

Avatar de l’usuari

r5004
Entrades: 13348
Membre des de: dc. nov. 01, 2006 8:08
Status: Desconnectat

Re: eac3 i els clics

#5

Entrada Autor: r5004 » dj. set. 24, 2015 18:42

Passat a ac3 (amb BassAudio) sense problemes i sense clic al minut 3:48.
"Hi ha gent a qui no li agrada que es parle, s'escriga o es pense en català. És la mateixa gent a qui no li agrada que es parle, s'escriga o es pense."
Imatge

Avatar de l’usuari

Autor del tema
Petiso
Site Admin
Site Admin
Entrades: 15945
Membre des de: dv. oct. 06, 2006 13:13
Status: Desconnectat

Re: eac3 i els clics

#6

Entrada Autor: Petiso » dj. set. 24, 2015 18:54

Flipant en colors .......

He trobat això ... i tampco em deixa obrir amb el bassaudio.
http://behappy.codeplex.com/

Quina versió del MeGui tens?? Jo tinc la ultima, i no portava el BassAudio, i l'he tingut que ficar manualment.
Imatge Imatge

Avatar de l’usuari

conradtgn
Entrades: 4522
Membre des de: dt. gen. 22, 2008 17:24
Ubicació: Tarragona
Status: Desconnectat

Re: eac3 i els clics

#7

Entrada Autor: conradtgn » dj. set. 24, 2015 19:05

MeGUI build 2525:
LWLibavAudioSource -> AMB Clics
FFAudioSourde -> AMB Clics
NicAudio -> no detecta be el format
BassAudio -> no detecta be el format
DirectShow -> Es penja
Imatge

Avatar de l’usuari

Autor del tema
Petiso
Site Admin
Site Admin
Entrades: 15945
Membre des de: dv. oct. 06, 2006 13:13
Status: Desconnectat

Re: eac3 i els clics

#8

Entrada Autor: Petiso » dj. set. 24, 2015 19:17

Igual que jo conrad doncs (mateixa versió, mateixos resultats)..... deu ser cosa del decoder com va dir el r5004 ..... a veure si ens diu quina versió te :-p
Imatge Imatge

Avatar de l’usuari

r5004
Entrades: 13348
Membre des de: dc. nov. 01, 2006 8:08
Status: Desconnectat

Re: eac3 i els clics

#9

Entrada Autor: r5004 » dj. set. 24, 2015 19:40

MeGui 2590 (la branca de desenvolupament, això es canvia a AutoUpdate als Settings). El que em quadraria més és que jo utilitzo els LavFilters, i vosaltres segurament utilitzareu el ffdshow tryout + Haali Media Splitter.

No he escoltat tot l'àudio, però he escoltat el tros de 3:48 unes quantes vegades i no hi ha clics.
"Hi ha gent a qui no li agrada que es parle, s'escriga o es pense en català. És la mateixa gent a qui no li agrada que es parle, s'escriga o es pense."
Imatge

Avatar de l’usuari

Autor del tema
Petiso
Site Admin
Site Admin
Entrades: 15945
Membre des de: dv. oct. 06, 2006 13:13
Status: Desconnectat

Re: eac3 i els clics

#10

Entrada Autor: Petiso » dj. set. 24, 2015 19:42

He provat de demuxar de nou el eac3 del VideoRedo activant la opció "Gop Acurate".
Al fer-ho, el ffmpeg ja detecta be el format, però segueixen sortint clics

[hide]

Codi: Selecciona’ls tots

ffmpeg.exe -i "Y:\HD\TDP\2015-09-20_20-14-01_TV3HD (AC3,cat)_Salpem - Roses G
OP_1.eac3" "Y:\HD\TDP\2015-09-20_20-14-01_TV3HD (AC3,cat)_Salpem - Roses GOP_1.w
av"
ffmpeg version N-75499-g7179add Copyright (c) 2000-2015 the FFmpeg developers
  libavutil      55.  2.100 / 55.  2.100
  libavcodec     57.  3.100 / 57.  3.100
  libavformat    57.  2.100 / 57.  2.100
  libavdevice    57.  0.100 / 57.  0.100
  libavfilter     6.  8.100 /  6.  8.100
  libswscale      4.  0.100 /  4.  0.100
  libswresample   2.  0.100 /  2.  0.100
  libpostproc    54.  0.100 / 54.  0.100
[eac3 @ 00000000003a03e0] Estimating duration from bitrate, this may be inaccurate Input #0, eac3, from 'Y:\HD\TDP\2015-09-20_20-14-01_TV3HD (AC3,cat)_Salpem - Ros es GOP_1.eac3':
  Duration: 00:25:30.30, start: 0.000000, bitrate: 128 kb/s
    Stream #0:0: Audio: eac3, 48000 Hz, stereo, fltp, 128 kb/s
Output #0, wav, to 'Y:\HD\TDP\2015-09-20_20-14-01_TV3HD (AC3,cat)_Salpem - Roses GOP_1.wav':
  Metadata:
    ISFT            : Lavf57.2.100
    Stream #0:0: Audio: pcm_s16le ([1][0][0][0] / 0x0001), 48000 Hz, stereo, s16
, 1536 kb/s
    Metadata:
      encoder         : Lavc57.3.100 pcm_s16le
Stream mapping:
  Stream #0:0 -> #0:0 (eac3 (native) -> pcm_s16le (native))
Press [q] to stop, [?] for help
[eac3 @ 00000000003aa740] exponent out-of-range
[eac3 @ 00000000003aa740] error decoding the audio block
[eac3 @ 00000000003aa740] exponent out-of-range
[eac3 @ 00000000003aa740] error decoding the audio block
[eac3 @ 00000000003aa740] exponent out-of-range
[eac3 @ 00000000003aa740] error decoding the audio block
[eac3 @ 00000000003aa740] exponent out-of-rangekbits/s
[eac3 @ 00000000003aa740] error decoding the audio block
[eac3 @ 00000000003aa740] invalid spectral extension copy start bin (61 >= 61)
[eac3 @ 00000000003aa740] error decoding the audio block
[eac3 @ 00000000003aa740] exponent out-of-range
[eac3 @ 00000000003aa740] error decoding the audio block
[eac3 @ 00000000003aa740] exponent out-of-rangekbits/s
[eac3 @ 00000000003aa740] error decoding the audio block
[eac3 @ 00000000003aa740] exponent out-of-rangekbits/s
[eac3 @ 00000000003aa740] error decoding the audio block
[eac3 @ 00000000003aa740] exponent out-of-rangekbits/s
[eac3 @ 00000000003aa740] error decoding the audio block
size=  286932kB time=00:25:30.30 bitrate=1536.0kbits/s
video:0kB audio:286932kB subtitle:0kB other streams:0kB global headers:0kB muxing overhead: 0.000027%
[/hide]
Imatge Imatge

Avatar de l’usuari

Autor del tema
Petiso
Site Admin
Site Admin
Entrades: 15945
Membre des de: dv. oct. 06, 2006 13:13
Status: Desconnectat

Re: eac3 i els clics

#11

Entrada Autor: Petiso » dj. set. 24, 2015 19:46

r5004 ha escrit:MeGui 2590 (la branca de desenvolupament, això es canvia a AutoUpdate als Settings). El que em quadraria més és que jo utilitzo els LavFilters, i vosaltres segurament utilitzareu el ffdshow tryout + Haali Media Splitter.
Vaig a provar ....
r5004 ha escrit:No he escoltat tot l'àudio, però he escoltat el tros de 3:48 unes quantes vegades i no hi ha clics.
Passa'l a wav .... a veure si veus els clics :-p
Imatge Imatge

Avatar de l’usuari

r5004
Entrades: 13348
Membre des de: dc. nov. 01, 2006 8:08
Status: Desconnectat

Re: eac3 i els clics

#12

Entrada Autor: r5004 » dj. set. 24, 2015 19:47

He pujat el meu àudio, passat a ac3.
"Hi ha gent a qui no li agrada que es parle, s'escriga o es pense en català. És la mateixa gent a qui no li agrada que es parle, s'escriga o es pense."
Imatge

Avatar de l’usuari

r5004
Entrades: 13348
Membre des de: dc. nov. 01, 2006 8:08
Status: Desconnectat

Re: eac3 i els clics

#13

Entrada Autor: r5004 » dj. set. 24, 2015 19:52

Petiso ha escrit:Passa'l a wav .... a veure si veus els clics :-p
Segons el eac3to, al passar el teu e-ac3 a wav hi ha clics (això era d'esperar). Al passar el meu ac3 no hi ha clics.
"Hi ha gent a qui no li agrada que es parle, s'escriga o es pense en català. És la mateixa gent a qui no li agrada que es parle, s'escriga o es pense."
Imatge

Avatar de l’usuari

Autor del tema
Petiso
Site Admin
Site Admin
Entrades: 15945
Membre des de: dv. oct. 06, 2006 13:13
Status: Desconnectat

Re: eac3 i els clics

#14

Entrada Autor: Petiso » dj. set. 24, 2015 19:56

He actualitzat el MeGui, instal·lat i condifurat el LAV ....

Segueix igual:

Codi: Selecciona’ls tots

--[Information] [24/09/2015 19:31:40] Trying to open the file with BassAudioSource()
--[Information] [24/09/2015 19:31:41] Failed opening the file with BassAudioSource(). bassAudioSource: File could not be opened!
Imatge Imatge

Avatar de l’usuari

r5004
Entrades: 13348
Membre des de: dc. nov. 01, 2006 8:08
Status: Desconnectat

Re: eac3 i els clics

#15

Entrada Autor: r5004 » dj. set. 24, 2015 20:23

Codi: Selecciona’ls tots

-[Information] [24/09/2015 19:40:31] Trying to open the file with BassAudioSource()
-[Information] [24/09/2015 19:40:31] Successfully opened the file with BassAudioSource()
-[Information] [24/09/2015 19:40:32] ignoring downmix as there is only 2 channel
-[Information] [24/09/2015 19:40:32] Avisynth script
--[NoImage] LoadPlugin("C:\Program Files (x86)\MeGUI\tools\avisynth_plugin\BassAudio.dll")
--[NoImage] BassAudioSource("E:\esborra\test.eac3")
Tens l'Avisynth i els seus plugins actualitzats?
Imatge
"Hi ha gent a qui no li agrada que es parle, s'escriga o es pense en català. És la mateixa gent a qui no li agrada que es parle, s'escriga o es pense."
Imatge

Respon