[ed2k] El cant de la Sibil·la (2016)

Còmics, llibres, jocs, etc.

Moderador: Petiso

Respon
Avatar de l’usuari

Autor del tema
r5004
Entrades: 12340
Membre des de: dc. nov. 01, 2006 8:08
Status: Desconnectat

[ed2k] El cant de la Sibil·la (2016)

#1

Entrada Autor: r5004 » dg. gen. 01, 2017 19:21

El cant de la Sibil·la (2016)

Imatge
Asseguratòrix ha escrit:És un "Drama litúrgic" mil·lenari que es fa tradicionalment cada nit de Nadal a algunes esglésies de Catalunya, encara que durant molts anys va estar prohibit.
A Mallorca però, s'ha interpretat quasi ininterrompudament des que hi va anar Jaume I.
Si en voleu saber més coses mireu l'enllaç de la Viquipèdia.
Dades de la publicació:
Vídeo DVBrip Xvid 544x304 a 810 Kbits/s Qf=0,201 (90% del test de compressibilitat)
Àudio DVBrip Mp3 128kbits/s Abr Estèreo (Balear)
Arxiu de 834 Megues (875370888 bytes)
2 hores, 3 minuts i 27 segons
Hash Md5: 78b29cb598cb570782c56aca83ced77c
MediaInfo
General
Complete name : D:\Sibilla\El cant de la Sibil·la (2016) (DVBrip balear) per r5004 (totsrucs.cat).avi
Format : AVI
Format/Info : Audio Video Interleave
File size : 835 MiB
Duration : 2h 3mn
Overall bit rate mode : Variable
Overall bit rate : 945 Kbps

Video
ID : 0
Format : MPEG-4 Visual
Format profile : Advanced Simple@L5
Format settings, BVOP : 2
Format settings, QPel : No
Format settings, GMC : No warppoints
Format settings, Matrix : Default (H.263)
Codec ID : XVID
Codec ID/Hint : XviD
Duration : 2h 3mn
Bit rate : 810 Kbps
Width : 544 pixels
Height : 304 pixels
Display aspect ratio : 16:9
Frame rate : 25.000 fps
Color space : YUV
Chroma subsampling : 4:2:0
Bit depth : 8 bits
Scan type : Progressive
Compression mode : Lossy
Bits/(Pixel*Frame) : 0.196
Stream size : 715 MiB (86%)
Writing library : XviD 67

Audio
ID : 1
Format : MPEG Audio
Format version : Version 1
Format profile : Layer 3
Mode : Joint stereo
Mode extension : MS Stereo
Codec ID : 55
Codec ID/Hint : MP3
Duration : 2h 3mn
Bit rate mode : Variable
Bit rate : 128 Kbps
Channel(s) : 2 channels
Sampling rate : 48.0 KHz
Compression mode : Lossy
Stream size : 108 MiB (13%)
Alignment : Aligned on interleaves
Interleave, duration : 24 ms (0.60 video frame)
Interleave, preload duration : 167 ms
Title : bal
Writing library : LAME3.99r
Encoding settings : -m j -V 4 -q 2 -lowpass 17 --abr 128


“Un home, i un poble, només pot pensar en la seva llengua, i si per dissort un dia arriba a pensar en la del veí, ja no és ell, sinó un altre, i de vegades ni això, car en el procés ho ha perdut tot."


barrufets
Entrades: 84
Membre des de: dj. gen. 17, 2008 1:36
Status: Desconnectat

Re: [ed2k] El cant de la Sibil·la (2016)

#2

Entrada Autor: barrufets » dj. abr. 20, 2017 14:21

r5004 ha escrit: Àudio DVBrip Mp3 128kbits/s Abr Estèreo (Balear)
Què significa Àudio "balear" ??? :shock:

Avatar de l’usuari

Autor del tema
r5004
Entrades: 12340
Membre des de: dc. nov. 01, 2006 8:08
Status: Desconnectat

Re: [ed2k] El cant de la Sibil·la (2016)

#3

Entrada Autor: r5004 » dj. abr. 20, 2017 15:13

barrufets ha escrit:Què significa Àudio "balear" ??? :shock:
El català que es parla a les balears...
“Un home, i un poble, només pot pensar en la seva llengua, i si per dissort un dia arriba a pensar en la del veí, ja no és ell, sinó un altre, i de vegades ni això, car en el procés ho ha perdut tot."


barrufets
Entrades: 84
Membre des de: dj. gen. 17, 2008 1:36
Status: Desconnectat

Re: [ed2k] El cant de la Sibil·la (2016)

#4

Entrada Autor: barrufets » dv. abr. 21, 2017 16:33

(F)

Respon