[ed2k] Circuit de Catalunya 25 anys

F1, GP2, WSR, DTM, Ral·lis, Red Bull Air Race, etc.

Moderador: conradtgn

Respon
Avatar de l’usuari

Autor del tema
r5004
Entrades: 12695
Membre des de: dc. nov. 01, 2006 8:08
Status: Desconnectat

[ed2k] Circuit de Catalunya 25 anys

#1

Entrada Autor: r5004 » dg. juny 25, 2017 7:54

Circuit de Catalunya 25 anys

Imatge

Imatge
ccma.cat ha escrit:Gala en commemoració dels 25 anys del Circuit de Catalunya.
Dades de la publicació:
Vídeo DVBrip Xvid 704x384 a 1420 Kbits/s Qf=0,215 (60% del test de compressibilitat)
Àudio DVBrip Mp3 128kbits/s Abr Estèreo
665 Megues (697310870 bytes)
1 hora
Hash Md5: e79c7490bedf300ec68aec0c6c7eca40
MediaInfo
General
Complete name : D:\Circuit_de_Catalunya_25_anys\Circuit de Catalunya 25 anys (DVBrip per r5004)(TotsRucs.cat).avi
Format : AVI
Format/Info : Audio Video Interleave
File size : 665 MiB
Duration : 59 min 59 s
Overall bit rate mode : Variable
Overall bit rate : 1 550 kb/s

Video
ID : 0
Format : MPEG-4 Visual
Format profile : Advanced Simple@L5
Format settings, BVOP : 2
Format settings, QPel : No
Format settings, GMC : No warppoints
Format settings, Matrix : Default (H.263)
Codec ID : XVID
Codec ID/Hint : XviD
Duration : 59 min 59 s
Bit rate : 1 418 kb/s
Width : 704 pixels
Height : 384 pixels
Display aspect ratio : 1.85:1
Frame rate : 25.000 FPS
Color space : YUV
Chroma subsampling : 4:2:0
Bit depth : 8 bits
Scan type : Progressive
Compression mode : Lossy
Bits/(Pixel*Frame) : 0.210
Stream size : 609 MiB (92%)
Writing library : XviD 67

Audio
ID : 1
Format : MPEG Audio
Format version : Version 1
Format profile : Layer 3
Mode : Joint stereo
Mode extension : MS Stereo
Codec ID : 55
Codec ID/Hint : MP3
Duration : 59 min 59 s
Bit rate mode : Variable
Bit rate : 119 kb/s
Nominal bit rate : 128 kb/s
Channel(s) : 2 channels
Sampling rate : 48.0 kHz
Compression mode : Lossy
Stream size : 50.9 MiB (8%)
Alignment : Aligned on interleaves
Interleave, duration : 24 ms (0.60 video frame)
Interleave, preload duration : 158 ms
Title : cat
Writing library : LAME3.99r
Encoding settings : -m j -V 4 -q 2 -lowpass 17 --abr 128


"Hi ha gent a qui no li agrada que es parle, s'escriga o es pense en català. És la mateixa gent a qui no li agrada que es parle, s'escriga o es pense."
Imatge

Avatar de l’usuari

Autor del tema
r5004
Entrades: 12695
Membre des de: dc. nov. 01, 2006 8:08
Status: Desconnectat

Re: [ed2k] Circuit de Catalunya 25 anys

#2

Entrada Autor: r5004 » dg. juny 25, 2017 7:56

Doncs des de les profunditats del disc dur ha aparegut això. :D :lol:
"Hi ha gent a qui no li agrada que es parle, s'escriga o es pense en català. És la mateixa gent a qui no li agrada que es parle, s'escriga o es pense."
Imatge

Avatar de l’usuari

conradtgn
Entrades: 4501
Membre des de: dt. gen. 22, 2008 17:24
Ubicació: Tarragona
Status: Desconnectat

Re: [ed2k] Circuit de Catalunya 25 anys

#3

Entrada Autor: conradtgn » dg. juny 25, 2017 8:58

Moltes gràcies!!! :D
Imatge

Avatar de l’usuari

Adrià05
Entrades: 1652
Membre des de: dt. feb. 03, 2015 20:06
Status: Desconnectat

Re: [ed2k] Circuit de Catalunya 25 anys

#4

Entrada Autor: Adrià05 » dg. juny 25, 2017 9:44

Gràcies!!

Respon