[ed2k] Ferran Latorre, camí cap als 8.000

Documentals

Moderadors: arakelov, Petiso, Nava

Respon
Avatar de l’usuari

Autor del tema
r5004
Entrades: 12209
Membre des de: dc. nov. 01, 2006 8:08
Status: Desconnectat

[ed2k] Ferran Latorre, camí cap als 8.000

#1

Entrada Autor: r5004 » dc. juny 07, 2017 18:43

Ferran Latorre, camí cap als 8.000

Imatge

Imatge
Dades de la publicació:
Vídeo HDTVrip x264 1280x720 a 3600 Kbits/s Qf=0,156 (70% del test de compressibilitat)
Àudio HDTVrip Ac3 128kbits/s Estèreo
Arxiu de 955 Megues (1002267449 bytes)
35 minuts i 14 segons
Hash Md5: 1b7047681c81326fc85fa3c639e6018b
MediaInfo
General
Unique ID : 179491218879329181239120899390903417256 (0x8708C056784D13E5B00A1057AED7F9A8)
Complete name : D:\Ferran Latorre cami cap als 8000\Ferran Latorre, camí cap als 8.000 (HDTVrip 720p català per r5004) (TotsRucs.cat).mkv
Format : Matroska
Format version : Version 2
File size : 956 MiB
Duration : 35 min 14 s
Overall bit rate : 3 793 kb/s
Encoded date : UTC 2017-06-05 13:18:32
Writing application : mkvmerge v12.0.0 ('Trust / Lust') 64bit
Writing library : libebml v1.3.4 + libmatroska v1.4.5

Video
ID : 1
Format : AVC
Format/Info : Advanced Video Codec
Format profile : High@L4.1
Format settings, CABAC : Yes
Format settings, ReFrames : 8 frames
Codec ID : V_MPEG4/ISO/AVC
Duration : 35 min 14 s
Bit rate : 3 600 kb/s
Width : 1 280 pixels
Height : 720 pixels
Display aspect ratio : 16:9
Frame rate mode : Constant
Frame rate : 25.000 FPS
Color space : YUV
Chroma subsampling : 4:2:0
Bit depth : 8 bits
Scan type : Progressive
Bits/(Pixel*Frame) : 0.156
Stream size : 907 MiB (95%)
Writing library : x264 core 150 r2833 df79067
Encoding settings : cabac=1 / ref=8 / deblock=1:-1:-1 / analyse=0x3:0x133 / me=umh / subme=9 / psy=1 / psy_rd=1.00:0.15 / mixed_ref=1 / me_range=16 / chroma_me=1 / trellis=2 / 8x8dct=1 / cqm=0 / deadzone=21,11 / fast_pskip=1 / chroma_qp_offset=-3 / threads=12 / lookahead_threads=1 / sliced_threads=0 / nr=0 / decimate=1 / interlaced=0 / bluray_compat=0 / constrained_intra=0 / bframes=3 / b_pyramid=2 / b_adapt=2 / b_bias=0 / direct=3 / weightb=1 / open_gop=0 / weightp=2 / keyint=250 / keyint_min=25 / scenecut=40 / intra_refresh=0 / rc_lookahead=60 / rc=2pass / mbtree=1 / bitrate=3600 / ratetol=1.0 / qcomp=0.60 / qpmin=0 / qpmax=69 / qpstep=4 / cplxblur=20.0 / qblur=0.5 / vbv_maxrate=62500 / vbv_bufsize=78125 / nal_hrd=none / filler=0 / ip_ratio=1.40 / aq=1:1.00
Language : English
Default : Yes
Forced : No

Audio
ID : 2
Format : AC-3
Format/Info : Audio Coding 3
Mode extension : CM (complete main)
Format settings, Endianness : Big
Codec ID : A_AC3
Duration : 35 min 14 s
Bit rate mode : Constant
Bit rate : 192 kb/s
Channel(s) : 2 channels
Channel positions : Front: L R
Sampling rate : 48.0 kHz
Frame rate : 31.250 FPS (1536 spf)
Bit depth : 16 bits
Compression mode : Lossy
Stream size : 48.4 MiB (5%)
Language : Catalan
Default : Yes
Forced : No


Imatge Imatge


d1k2
Entrades: 67
Membre des de: ds. maig 24, 2014 9:07
Status: Desconnectat

Re: [ed2k] Ferran Latorre, camí cap als 8.000

#2

Entrada Autor: d1k2 » dl. juny 12, 2017 19:40

gràcies r5004

Respon