[ed2k] Ombres de la transició - El cas Adolfo Bárcena

Documentals

Moderadors: arakelov, Petiso, Nava

Avatar de l’usuari
r5004
Entrades: 12049
Membre des de: dc. nov. 01, 2006 8:08

[ed2k] Ombres de la transició - El cas Adolfo Bárcena

EntradaAutor: r5004 » dv. maig 26, 2017 18:57

Ombres de la transició - El cas Adolfo Bárcena

Imatge
El Punt Avui

Imatge


elpuntavui.cat ha escrit:Quan el jove Adolfo Bárcena va sortir a sopar amb la seva colla la nit del 20 de febrer del 1977, no es podia imaginar que els seus amics acabarien al Palau de La Moncloa, a Madrid, per denunciar al govern espanyol que havia estat assassinat en estranyes circumstàncies per un agent de la Guàrdia Civil a Hostalric (Selva). Bárcena, veí de Tordera (Maresme), havia quedat amb uns amics per fer un mos abans d'anar a veure el Rally Costa Brava, però en arribar a Hostalric va fer una frenada amb el cotxe –suposadament per evitar atropellar un gat– que va alertar una parella de guàrdies civils en un moment, en plena Transició, en què el cos estava exaltat i en un estat gairebé psicòtic per por d'atemptats i accions subversives. Els agents van trobar el cotxe aparcat i, per evitar que pogués fugir, en van punxar les rodes. No obstant això, Bárcena, després de sopar, el va posar en marxa i, quan els agents el van veure, un d'ells el va perseguir fins a un racó apartat on, per circumstàncies que encara avui no s'han aclarit, li va disparar mortalment al pit.
Amb l'objectiu d'esvair dubtes sobre aquest estrany succés, Quim Forns i Santi Barrera han produït Ombres de la Transició: el cas Adolfo Bárcena, un documental amb què intenten ordenar i esclarir l'estranya mort del jove torderenc de 22 anys, que en el judici posterior va ser acusat i declarat culpable “de dos o tres delictes, perquè no hi havia ningú que pogués demostrar que no ho era”, explica Barrera en una entrevista a El Punt Avui TV. En el sumari del cas, al qual han accedit els productors del llargmetratge, el guàrdia civil va explicar que havia disparat contra Bárcena en defensa pròpia després d'una breu baralla en què li havia arrencat tres botons de l'uniforme, si bé només se'n va arribar a trobar un per la “malesa” del lloc, malgrat que era un voral de sorra i pedres. Aquest és un dels factors que fan grinyolar la versió oficial dels fets, a la qual cal afegir que els amics de Bárcena van ser retinguts aquella nit a la caserna de la Guàrdia Civil sense rebre cap explicació.
Els testimonis atribueixen el secretisme a l'intent de la Guàrdia Civil d'amagar un assassinat maldestre i sense motiu, una sospita que van tenir des del principi pel caràcter dòcil de Bárcena i per l'actitud de la benemèrita, que va retenir els seus companys quan l'agent iniciava l'absurda persecució del cotxe del jove, que no podia anar gaire lluny amb les rodes punxades pels mateixos agents.
El documental no aclareix el que va passar amb certesa aquell 20 de febrer, però aporta més punts de vista que els de la versió oficial que va donar la justícia postfranquista, que es va limitar, bàsicament, a donar per vàlida la versió del guàrdia civil que va prémer el gallet, tot i els canvis en la descripció dels fets. Aquesta sospita, que va planar sobre el crim des del primer moment, és el que va animar els companys de la víctima a elaborar un dossier i dur-lo a la presidència espanyola, que aleshores ocupava Adolfo Suárez. Paral·lelament, es va organitzar una gran manifestació que va anar acompanyada d'un gran dispositiu policial, malgrat que era pacífica, pel temor que tenia la Guàrdia Civil d'una reacció dels veïns, que se sentien indignats.
El documental, de producció gironina, també desenterra què va passar amb l'agent autor dels fets, José García Caraballo, que no va morir després de ser destinat al nord d'Espanya com es rumoreja al poble, sinó que va ser traslladat a Castella, on va anar ascendint fins a esdevenir tinent d'una caserna de Lleó, i el 2004, va ser nomenat capità a la mateixa província, on va exercir fins a retirar-se.


Dades de la publicació:
Vídeo DVBrip Xvid 704x384 a 1540 Kbits/s Qf=0,228 (70% del test de compressibilitat)
Àudio DVBrip Mp3 128kbits/s Abr Estèreo
Arxiu de 729 Megues (765070148 bytes)
1 hora i 40 segons
Hash Md5: 46a7abeb8ec06607d3a3c6d69e9fa448
MediaInfo
General
Complete name : D:\Ombres de la Transició, el cas Adolfo Bárcena\Ombres de la transició - El cas Adolfo Bárcena (DVBrip català) per r5004 (totsrucs.cat).avi
Format : AVI
Format/Info : Audio Video Interleave
File size : 730 MiB
Duration : 1 h 0 min
Overall bit rate mode : Variable
Overall bit rate : 1 682 kb/s

Video
ID : 0
Format : MPEG-4 Visual
Format profile : Advanced Simple@L5
Format settings, BVOP : 2
Format settings, QPel : No
Format settings, GMC : No warppoints
Format settings, Matrix : Default (H.263)
Codec ID : XVID
Codec ID/Hint : XviD
Duration : 1 h 0 min
Bit rate : 1 540 kb/s
Width : 704 pixels
Height : 384 pixels
Display aspect ratio : 1.85:1
Frame rate : 25.000 FPS
Color space : YUV
Chroma subsampling : 4:2:0
Bit depth : 8 bits
Scan type : Progressive
Compression mode : Lossy
Bits/(Pixel*Frame) : 0.228
Stream size : 668 MiB (92%)
Writing library : XviD 67

Audio
ID : 1
Format : MPEG Audio
Format version : Version 1
Format profile : Layer 3
Mode : Joint stereo
Mode extension : MS Stereo
Codec ID : 55
Codec ID/Hint : MP3
Duration : 1 h 0 min
Bit rate mode : Variable
Bit rate : 128 kb/s
Channel(s) : 2 channels
Sampling rate : 48.0 kHz
Compression mode : Lossy
Stream size : 55.8 MiB (8%)
Alignment : Aligned on interleaves
Interleave, duration : 24 ms (0.60 video frame)
Interleave, preload duration : 152 ms
Title : cat
Writing library : LAME3.99r
Encoding settings : -m j -V 4 -q 2 -lowpass 17 --abr 128
Imatge

Torna a “Documentals”

Qui està connectat

Usuaris navegant en aquest fòrum: No hi ha cap usuari registrat i 3 visitants