[ed2k] Presidenta del Parlament, a judici?

Documentals

Moderadors: arakelov, Petiso, Nava

Respon
Avatar de l’usuari

Autor del tema
r5004
Entrades: 12209
Membre des de: dc. nov. 01, 2006 8:08
Status: Desconnectat

[ed2k] Presidenta del Parlament, a judici?

#1

Entrada Autor: r5004 » dt. maig 23, 2017 19:36

Presidenta del Parlament, a judici?

Imatge

Imatge
ccma.cat ha escrit:Un reportatge especial dels serveis informatius de TV3 que dona veu a tots els implicats en el judici a Carme Forcadell i es formula preguntes per aclarir una qüestió tan inusual i extrema com la presència de la presidenta del Parlament davant la justícia.
Dades de la publicació:
Vídeo DVBrip Xvid 704x384 a 1300 Kbits/s Qf=0,197 (74% del test de compressibilitat)
Àudio DVBrip Mp3 128kbits/s Abr Estèreo
Arxiu de 348 Megues (365284206 bytes)
34 minuts i 6 segons
Hash Md5: e62e1f8ddfbd5b5bd5d67c27c5cc80c5
MediaInfo
General
Complete name : D:\Presidenta del Parlament, a judici\Presidenta del Parlament, a judici¿ (DVBrip català) per r5004 (totsrucs.cat).avi
Format : AVI
Format/Info : Audio Video Interleave
File size : 348 MiB
Duration : 34 min 6 s
Overall bit rate mode : Variable
Overall bit rate : 1 428 kb/s

Video
ID : 0
Format : MPEG-4 Visual
Format profile : Advanced Simple@L5
Format settings, BVOP : 2
Format settings, QPel : No
Format settings, GMC : No warppoints
Format settings, Matrix : Default (H.263)
Codec ID : XVID
Codec ID/Hint : XviD
Duration : 34 min 6 s
Bit rate : 1 299 kb/s
Width : 704 pixels
Height : 384 pixels
Display aspect ratio : 1.85:1
Frame rate : 25.000 FPS
Color space : YUV
Chroma subsampling : 4:2:0
Bit depth : 8 bits
Scan type : Progressive
Compression mode : Lossy
Bits/(Pixel*Frame) : 0.192
Stream size : 317 MiB (91%)
Writing library : XviD 67

Audio
ID : 1
Format : MPEG Audio
Format version : Version 1
Format profile : Layer 3
Mode : Joint stereo
Mode extension : MS Stereo
Codec ID : 55
Codec ID/Hint : MP3
Duration : 34 min 6 s
Bit rate mode : Variable
Bit rate : 116 kb/s
Nominal bit rate : 128 kb/s
Channel(s) : 2 channels
Sampling rate : 48.0 kHz
Compression mode : Lossy
Stream size : 28.3 MiB (8%)
Alignment : Aligned on interleaves
Interleave, duration : 24 ms (0.60 video frame)
Interleave, preload duration : 77 ms
Title : cat
Writing library : LAME3.99r
Encoding settings : -m j -V 4 -q 2 -lowpass 17 --abr 128


Imatge Imatge

Respon