[ed2k] Els condemnats

Pel·lícules, cicles, etc.

Moderadors: Oliana, Petiso

Respon
Avatar de l’usuari

Autor del tema
r5004
Entrades: 12556
Membre des de: dc. nov. 01, 2006 8:08
Status: Desconnectat

[ed2k] Els condemnats

#1

Entrada Autor: r5004 » dt. març 20, 2018 20:24

Els condemnats

Imatge
Imdb

Imatge
ccma.cat ha escrit:ELS CONDEMNATS (The condemned)
Direcció: Scott Wiper
Guió: Scott Wiper, Rob Hedden, Andy Hedden
Producció: Lions Gate Films
Any de producció: 2007
Durada: 108 minuts
Fotografía: Ross Emery
Música: Graeme Revell
Intèrprets: Steve Austin, Vinnie Jones, Robert Mammone, Victoria Mussett, Rick Hoffman, Christopher Baker, Samantha Healy, Madeline West, Luke Pegler, Manu Bennett

Un productor de televisió vol fer un concurs en forma de "reality show" i emetre'l en directe per internet. Subornant funcionaris corruptes d'unes quantes presons del món, arriba a reunir deu presoners condemnats a mort en una illa deserta del Pacífic Sud. Allà, els farà saber la mecànica del concurs: hauran de lluitar a mort entre ells fins que només en quedi un de viu. A part de la vida, el premi per al guanyador serà la llibertat.
Dades de la publicació:
Vídeo HDTVrip x264 1280x720 a 3548 Kbits/s Qf=0.154 (Crf=19)
Àudio HDTVrip Ac3 128kbits/s Estèreo (Català)
Àudio HDTV Ac3 96kbits/s Mono (Anglès)
Arxiu de 2,67 Gigues (2877748751 bytes)
1 hora, 41 minuts i 40 segons
Hash Md5: b3cd4b0e8b0a1dce29b81d29efa0b5f2
MediaInfo
General
Unique ID : 85394468427829724780633011630533870455 (0x403E605AA3345FB7BCBD68BF56D98377)
Complete name : D:\Els condemnats\Els condemnats (HDTVrip 720p català - anglès per r5004) (TotsRucs.cat).mkv
Format : Matroska
Format version : Version 2
File size : 2.68 GiB
Duration : 1 h 41 min
Overall bit rate : 3 774 kb/s
Encoded date : UTC 2018-03-20 14:08:19
Writing application : mkvmerge v21.0.0 ('Tardigrades Will Inherit The Earth') 64-bit
Writing library : libebml v1.3.5 + libmatroska v1.4.8

Video
ID : 1
Format : AVC
Format/Info : Advanced Video Codec
Format profile : High@L4.1
Format settings, CABAC : Yes
Format settings, RefFrames : 8 frames
Codec ID : V_MPEG4/ISO/AVC
Duration : 1 h 41 min
Bit rate : 3 548 kb/s
Width : 1 280 pixels
Height : 720 pixels
Display aspect ratio : 16:9
Frame rate mode : Constant
Frame rate : 25.000 FPS
Color space : YUV
Chroma subsampling : 4:2:0
Bit depth : 8 bits
Scan type : Progressive
Bits/(Pixel*Frame) : 0.154
Stream size : 2.52 GiB (94%)
Writing library : x264 core 155 r2901 7d0ff22
Encoding settings : cabac=1 / ref=8 / deblock=1:-1:-1 / analyse=0x3:0x133 / me=umh / subme=9 / psy=1 / psy_rd=1.00:0.15 / mixed_ref=1 / me_range=16 / chroma_me=1 / trellis=2 / 8x8dct=1 / cqm=0 / deadzone=21,11 / fast_pskip=1 / chroma_qp_offset=-3 / threads=12 / lookahead_threads=1 / sliced_threads=0 / nr=0 / decimate=1 / interlaced=0 / bluray_compat=0 / constrained_intra=0 / bframes=3 / b_pyramid=2 / b_adapt=2 / b_bias=0 / direct=3 / weightb=1 / open_gop=0 / weightp=2 / keyint=250 / keyint_min=25 / scenecut=40 / intra_refresh=0 / rc_lookahead=60 / rc=crf / mbtree=1 / crf=19.0 / qcomp=0.60 / qpmin=0 / qpmax=69 / qpstep=4 / vbv_maxrate=62500 / vbv_bufsize=78125 / crf_max=0.0 / nal_hrd=none / filler=0 / ip_ratio=1.40 / aq=1:1.00
Default : Yes
Forced : No

Audio #1
ID : 2
Format : AC-3
Format/Info : Audio Coding 3
Format settings, Endianness : Big
Codec ID : A_AC3
Duration : 1 h 41 min
Bit rate mode : Constant
Bit rate : 128 kb/s
Channel(s) : 2 channels
Channel positions : Front: L R
Sampling rate : 48.0 kHz
Frame rate : 31.250 FPS (1536 SPF)
Bit depth : 16 bits
Compression mode : Lossy
Stream size : 93.1 MiB (3%)
Language : Catalan
Service kind : Complete Main
Default : Yes
Forced : No

Audio #2
ID : 3
Format : AC-3
Format/Info : Audio Coding 3
Format settings, Endianness : Big
Codec ID : A_AC3
Duration : 1 h 41 min
Bit rate mode : Constant
Bit rate : 96.0 kb/s
Channel(s) : 1 channel
Channel positions : Front: C
Sampling rate : 48.0 kHz
Frame rate : 31.250 FPS (1536 SPF)
Bit depth : 16 bits
Compression mode : Lossy
Stream size : 69.8 MiB (3%)
Language : English
Service kind : Complete Main
Default : No
Forced : No


“Un home, i un poble, només pot pensar en la seva llengua, i si per dissort un dia arriba a pensar en la del veí, ja no és ell, sinó un altre, i de vegades ni això, car en el procés ho ha perdut tot."

Imatge


XBG5
Entrades: 47
Membre des de: dl. ago. 22, 2016 22:18
Status: Desconnectat

Re: [ed2k] Els condemnats

#2

Entrada Autor: XBG5 » dc. març 21, 2018 12:19

Moltes gràcies!


d1k2
Entrades: 99
Membre des de: ds. maig 24, 2014 9:07
Status: Desconnectat

Re: [ed2k] Els condemnats

#3

Entrada Autor: d1k2 » dc. març 21, 2018 19:53

Moltes gràcies r5004

Respon