[ed2k] La gran revenja

Pel·lícules, cicles, etc.

Moderadors: Oliana, Petiso

Respon
Avatar de l’usuari

Autor del tema
r5004
Entrades: 12695
Membre des de: dc. nov. 01, 2006 8:08
Status: Desconnectat

[ed2k] La gran revenja

#1

Entrada Autor: r5004 » dg. feb. 18, 2018 8:36

La gran revenja

Imatge
Imdb

Imatge
ccma ha escrit:La gran revenja (Grudge Match)
Direcció: Peter Segal
Guió: Tim Kelleher, Rodney Rothman (Història: Tim Kelleher)
Producció: Warner Bros. / Callahan Filmworks / Gerber Pictures
Durada: 108 minuts
Fotografía: Dean Semler
Música: Trevor Rabin
Intèrprets: Robert De Niro, Sylvester Stallone, Kevin Hart, Alan Arkin, Kim Basinger, Jon Bernthal, Judd Lormand, Han Soto, Nicole Andrews, LL Cool J, Paul Ben-Victor, Anthony Anderson, Barry Primus, Ireland Baldwin, Kate Reinders, Mike Tyson, Evander Holyfield

Henry "Razor" Sharp i Billy "The Kid" McDonnen són dos exboxejadors que havien tingut una gran rivalitat 30 anys enrere, arran de dos combats que els van enfrontar, amb el resultat d'una victòria per a cadascun. Just abans del combat de desempat, en Razor va decidir retirar-se després que la seva xicota es quedés embarassada d'en Billy. Passats els anys, el promotor Dante Slate decideix organitzar el combat de desempat, però en Razor no hi està d'acord, malgrat les ofertes econòmiques que rep, i davant la frustració d'en Billy. Finalment, com que es queda sense feina, en Razor no té més remei que acceptar l'oferta i tornar a tractar amb en Billy, tot i l'odi que encara existeix entre els dos excampions.
Dades de la publicació:
Vídeo HDTVrip x264 1280x720 a 5457 Kbits/s Qf=0.237 (Crf=16)
Àudio HDTVrip Ac3 128kbits/s Estèreo (Català)
Àudio HDTVrip Ac3 96kbits/s Mono (Anglès)
Àudio HDTVrip Mp2 96kbits/s Mono (Audiodescripció)
Arxiu de 4,14 Gigues (4450094613 bytes)
1 hora, 42 minuts i 40 segons
Hash Md5: 83e477dbbc45edaeacc1c939b81e9ec0
MediaInfo
General
Unique ID : 328590313974764261710576444404738880072 (0xF734314876BD311F0FC6CFFB6DB0F248)
Complete name : D:\La gran revenja\La gran revenja (HDTVrip 720p català - anglès - audiodescripció per r5004) (TotsRucs.cat).mkv
Format : Matroska
Format version : Version 2
File size : 4.14 GiB
Duration : 1 h 42 min
Overall bit rate : 5 779 kb/s
Encoded date : UTC 2018-02-17 16:05:50
Writing application : mkvmerge v19.0.0 ('Brave Captain') 64-bit
Writing library : libebml v1.3.5 + libmatroska v1.4.8

Video
ID : 1
Format : AVC
Format/Info : Advanced Video Codec
Format profile : High@L4.1
Format settings, CABAC : Yes
Format settings, RefFrames : 8 frames
Codec ID : V_MPEG4/ISO/AVC
Duration : 1 h 42 min
Bit rate : 5 457 kb/s
Width : 1 280 pixels
Height : 720 pixels
Display aspect ratio : 16:9
Frame rate mode : Constant
Frame rate : 25.000 FPS
Color space : YUV
Chroma subsampling : 4:2:0
Bit depth : 8 bits
Scan type : Progressive
Bits/(Pixel*Frame) : 0.237
Stream size : 3.91 GiB (94%)
Writing library : x264 core 152 r2851 ba24899
Encoding settings : cabac=1 / ref=8 / deblock=1:-1:-1 / analyse=0x3:0x133 / me=umh / subme=9 / psy=1 / psy_rd=1.00:0.15 / mixed_ref=1 / me_range=16 / chroma_me=1 / trellis=2 / 8x8dct=1 / cqm=0 / deadzone=21,11 / fast_pskip=1 / chroma_qp_offset=-3 / threads=12 / lookahead_threads=1 / sliced_threads=0 / nr=0 / decimate=1 / interlaced=0 / bluray_compat=0 / constrained_intra=0 / bframes=3 / b_pyramid=2 / b_adapt=2 / b_bias=0 / direct=3 / weightb=1 / open_gop=0 / weightp=2 / keyint=250 / keyint_min=25 / scenecut=40 / intra_refresh=0 / rc_lookahead=60 / rc=crf / mbtree=1 / crf=16.0 / qcomp=0.60 / qpmin=0 / qpmax=69 / qpstep=4 / vbv_maxrate=62500 / vbv_bufsize=78125 / crf_max=0.0 / nal_hrd=none / filler=0 / ip_ratio=1.40 / aq=1:1.00
Default : Yes
Forced : No

Audio #1
ID : 2
Format : AC-3
Format/Info : Audio Coding 3
Format settings, Endianness : Big
Codec ID : A_AC3
Duration : 1 h 42 min
Bit rate mode : Constant
Bit rate : 128 kb/s
Channel(s) : 2 channels
Channel positions : Front: L R
Sampling rate : 48.0 kHz
Frame rate : 31.250 FPS (1536 SPF)
Bit depth : 16 bits
Compression mode : Lossy
Stream size : 94.0 MiB (2%)
Language : Catalan
Service kind : Complete Main
Default : Yes
Forced : No

Audio #2
ID : 3
Format : AC-3
Format/Info : Audio Coding 3
Format settings, Endianness : Big
Codec ID : A_AC3
Duration : 1 h 42 min
Bit rate mode : Constant
Bit rate : 96.0 kb/s
Channel(s) : 1 channel
Channel positions : Front: C
Sampling rate : 48.0 kHz
Frame rate : 31.250 FPS (1536 SPF)
Bit depth : 16 bits
Compression mode : Lossy
Stream size : 70.5 MiB (2%)
Language : English
Service kind : Complete Main
Default : No
Forced : No

Audio #3
ID : 4
Format : MPEG Audio
Format version : Version 1
Format profile : Layer 2
Codec ID : A_MPEG/L2
Codec ID/Hint : MP2
Duration : 1 h 42 min
Bit rate mode : Constant
Bit rate : 96.0 kb/s
Channel(s) : 1 channel
Sampling rate : 48.0 kHz
Frame rate : 41.667 FPS (1152 SPF)
Compression mode : Lossy
Stream size : 70.5 MiB (2%)
Language : Catalan
Default : No
Forced : No
r5004 l’ha editat per darrera vegada el dia: dg. maig 13, 2018 8:29, en total s’ha editat 2 vegades.


"Hi ha gent a qui no li agrada que es parle, s'escriga o es pense en català. És la mateixa gent a qui no li agrada que es parle, s'escriga o es pense."
Imatge


XBG5
Entrades: 50
Membre des de: dl. ago. 22, 2016 22:18
Status: Desconnectat

Re: [ed2k] La gran revenja

#2

Entrada Autor: XBG5 » dg. feb. 18, 2018 16:13

Moltes gràcies!


d1k2
Entrades: 108
Membre des de: ds. maig 24, 2014 9:07
Status: Desconnectat

Re: [ed2k] La gran revenja

#3

Entrada Autor: d1k2 » dl. feb. 19, 2018 21:48

Moltes gràcies r5004

Respon