[ed2k] Piromusical de la Mercè 2017 (25.09.17)

Còmics, llibres, jocs, etc.

Moderador: Petiso

Respon
Avatar de l’usuari

Autor del tema
r5004
Entrades: 12340
Membre des de: dc. nov. 01, 2006 8:08
Status: Desconnectat

[ed2k] Piromusical de la Mercè 2017 (25.09.17)

#1

Entrada Autor: r5004 » dt. set. 26, 2017 19:34

Piromusical de la Mercè 2017 (25.09.17)

Imatge

Imatge
ccma.cat ha escrit:Un any més, l'avinguda Reina Maria Cristina de la capital catalana s'omplirà per acomiadar la Festa Major de la ciutat amb el Piromusical de la Mercè. TV3 hi connectarà en directe quan acabi el "TN vespre", i emetrà l'espectacle amb els comentaris d'Helena Garcia Melero.

El Piromusical es divideix en diferents blocs dedicats al vint-i-cinquè aniversari dels Jocs Olímpics del 1992; a Reykjavík, la ciutat convidada d'aquesta Mercè; al 40è aniversari de la primera manifestació pels drets LGTB celebrada a Barcelona el 1977, i als músics desapareguts enguany o dels quals s'ha commemorat fa poc l'aniversari de la seva mort, com el compositor Enric Granados. A més, es farà un homenatge a les víctimes dels atemptats de Barcelona i Cambrils del 17 d'agost.
Dades de la publicació:
Vídeo HDTVrip x264 1280x720 a 4166 Kbits/s Qf=0.181 (Crf=19)
Àudio HDTV E-ac3 128kbits/s Estèreo (sense re-compressió)
Arxiu de 1,21 Gigues (1307914332 bytes)
40 minuts i 36 segons
Hash Md5: 1adc85f68d2ae33f8242732866ddacc5
MediaInfo
General
Unique ID : 251014153331160659299434349968781698231 (0xBCD79143858D161EB716DAB03D1B64B7)
Complete name : D:\Piromusical 2017\Piromusical de la Mercè 2017 (25.09.17) (HDTVrip 720p català per r5004) (TotsRucs.cat).mkv
Format : Matroska
Format version : Version 2
File size : 1.22 GiB
Duration : 40 min 35 s
Overall bit rate : 4 296 kb/s
Encoded date : UTC 2017-09-26 16:32:55
Writing application : mkvmerge v15.0.0 ('Duel with the Devil') 64-bit
Writing library : libebml v1.3.5 + libmatroska v1.4.5

Video
ID : 1
Format : AVC
Format/Info : Advanced Video Codec
Format profile : High@L4.1
Format settings, CABAC : Yes
Format settings, RefFrames : 8 frames
Codec ID : V_MPEG4/ISO/AVC
Duration : 40 min 35 s
Bit rate : 4 166 kb/s
Width : 1 280 pixels
Height : 720 pixels
Display aspect ratio : 16:9
Frame rate mode : Constant
Frame rate : 25.000 FPS
Color space : YUV
Chroma subsampling : 4:2:0
Bit depth : 8 bits
Scan type : Progressive
Bits/(Pixel*Frame) : 0.181
Stream size : 1.18 GiB (97%)
Writing library : x264 core 152 r2851 ba24899
Encoding settings : cabac=1 / ref=8 / deblock=1:0:0 / analyse=0x3:0x133 / me=umh / subme=9 / psy=1 / psy_rd=1.00:0.00 / mixed_ref=1 / me_range=16 / chroma_me=1 / trellis=2 / 8x8dct=1 / cqm=0 / deadzone=21,11 / fast_pskip=1 / chroma_qp_offset=-2 / threads=12 / lookahead_threads=1 / sliced_threads=0 / nr=0 / decimate=1 / interlaced=0 / bluray_compat=0 / constrained_intra=0 / bframes=3 / b_pyramid=2 / b_adapt=2 / b_bias=0 / direct=3 / weightb=1 / open_gop=0 / weightp=2 / keyint=250 / keyint_min=25 / scenecut=40 / intra_refresh=0 / rc_lookahead=60 / rc=crf / mbtree=1 / crf=19.0 / qcomp=0.60 / qpmin=0 / qpmax=69 / qpstep=4 / vbv_maxrate=62500 / vbv_bufsize=78125 / crf_max=0.0 / nal_hrd=none / filler=0 / ip_ratio=1.40 / aq=1:1.00
Language : English
Default : Yes
Forced : No

Audio
ID : 2
Format : E-AC-3
Format/Info : Enhanced Audio Coding 3
Format settings, Endianness : Big
Codec ID : A_EAC3
Duration : 40 min 35 s
Bit rate mode : Constant
Bit rate : 128 kb/s
Channel(s) : 2 channels
Channel positions : Front: L R
Sampling rate : 48.0 kHz
Frame rate : 187.500 FPS (256 SPF)
Compression mode : Lossy
Stream size : 37.2 MiB (3%)
Language : Catalan
Service kind : Complete Main
Default : Yes
Forced : No


“Un home, i un poble, només pot pensar en la seva llengua, i si per dissort un dia arriba a pensar en la del veí, ja no és ell, sinó un altre, i de vegades ni això, car en el procés ho ha perdut tot."


d1k2
Entrades: 72
Membre des de: ds. maig 24, 2014 9:07
Status: Desconnectat

Re: [ed2k] Piromusical de la Mercè 2017 (25.09.17)

#2

Entrada Autor: d1k2 » dc. set. 27, 2017 21:36

gràcies r5004.
...i que ningú ens pugui pendre la llibertat d'expressió!

Respon