[DD/ed2k] Pulp Fiction (1994) [BDrip HD 1080p]

Pel·lícules, cicles, etc.

Moderadors: Oliana, Petiso

Respon

Autor del tema
espolet96
Entrades: 22
Membre des de: dl. des. 19, 2011 21:16
Status: Desconnectat

[DD/ed2k] Pulp Fiction (1994) [BDrip HD 1080p]

#1

Entrada Autor: espolet96 » ds. jul. 08, 2017 18:29

Pulp Fiction

1994
Imatge
Sinopsi:
En Jules i en Vincent són dos assassins a sou que treballen per a en Marsellus Wallace. Abans de realitzar un dels seus 'treballs', el Vincent confessa al Jules que en Marsellus li ha demanat que cuidi de la seva xicota, la Mia. Comencen a parlar sobre el perill de sobrepassar-se amb la xicota d'en Marcellus, però arriba l'hora de treballar i ambdós han de posar-se a la feina. La seva missió: recuperar un misteriós maletí.
Captures:
Imatge
Imatge
Imatge
TÍTOL ORIGINAL: Pulp Fiction
ANY: 1994
DURADA: 148 minuts (2 h 28 min).
PAÍS: EUA
GUIÓ: Quentin Tarantino & Roger Avary
MÚSICA: Diversos artistes
FOTOGRAFIA: Andrzej Sekula
PRODUCTORA: Miramax Films / Band Apart / Jersey Films
DIRECCIÓ: Quentin Tarantino
REPARTIMENT i DOBLATGE: SAMUEL L. JACKSON (Joan Massotkleiner), JOHN TRAVOLTA (Jaume Comas), UMA THURMAN (Mercè Montalà), BRUCE WILLIS (Juan Antonio Bernal), MARÍA DE MEDEIROS (Núria Mediavilla), TIM ROTH (Alfonso Vallés), AMANDA PLUMMER (Alicia Laorden)
GÈNERE: Thriller, crim, drama
CLASSIFICACIÓ: No recomanada a menors de 18 anys.

Dades tècniques

Versió HD 1080p x264
Contenidor: mkv
Mida: 12,6 GB
Frame rate: 25 fps
Bit rate vídeo: 10,7 Mbps
Resolució: 1920 x 816
Àudios:
- Català: DOLBY 5.1 (AC3 448 kbps) (de mecanoscrit.cat PIZARRIN)
- Anglès: DOLBY 5.1 (AC3 640 kbps)
Subtítols:
- Forçats en català
- Complets en català (de totsrucs.cat OLIANA)
- Complets en anglès

Agraïments: Gràcies a l'Adrià05 per haver-me ajudat a fer aquesta aportació :)

Enllaç: [MEGA (3 parts)] Pulp.Fiction.1994.(1080p_BDrip_àudio_català_english_+_subs)_espolet96_(TotsRucs).mkv
Enllaç: [eMule] Pulp.Fiction.1994.(1080p_BDrip_àudio_català_english_+_subs)_espolet96_(TotsRucs).mkv
MediaInfo
General
Unique ID : 251232227595589067099503002981418729486 (0xBD019127B53D07179920219050F9000E)
Complete name : Pulp.Fiction.1994.(1080p_BDrip_àudio_català_english_+_subs)_espolet96_(TotsRucs).mkv
Format : Matroska
Format version : Version 4 / Version 2
File size : 12.6 GiB
Duration : 2 h 28 min
Overall bit rate : 12.2 Mb/s
Encoded date : UTC 2017-07-08 14:42:30
Writing application : mkvmerge v6.1.0 ('Old Devil') built on Mar 2 2013 14:32:37
Writing library : libebml v1.3.0 + libmatroska v1.4.0

Video
ID : 1
Format : AVC
Format/Info : Advanced Video Codec
Format profile : High@L4.1
Format settings, CABAC : Yes
Format settings, ReFrames : 5 frames
Codec ID : V_MPEG4/ISO/AVC
Duration : 2 h 28 min
Bit rate : 10.7 Mb/s
Width : 1 920 pixels
Height : 816 pixels
Display aspect ratio : 2.35:1
Frame rate mode : Constant
Frame rate : 25.000 FPS
Original frame rate : 23.976 FPS
Color space : YUV
Chroma subsampling : 4:2:0
Bit depth : 8 bits
Scan type : Progressive
Bits/(Pixel*Frame) : 0.272
Stream size : 11.2 GiB (89%)
Writing library : x264 core 65 r1028 83baa7f
Encoding settings : cabac=1 / ref=5 / deblock=1:0:0 / analyse=0x3:0x113 / me=umh / subme=7 / psy_rd=1.0:0.0 / mixed_ref=1 / me_range=16 / chroma_me=1 / trellis=1 / 8x8dct=1 / cqm=0 / deadzone=21,11 / chroma_qp_offset=-2 / threads=6 / nr=0 / decimate=1 / mbaff=0 / bframes=3 / b_pyramid=1 / b_adapt=1 / b_bias=0 / direct=1 / wpredb=1 / keyint=250 / keyint_min=25 / scenecut=40(pre) / rc=2pass / bitrate=10656 / ratetol=1.0 / qcomp=0.60 / qpmin=10 / qpmax=51 / qpstep=4 / cplxblur=20.0 / qblur=0.5 / ip_ratio=1.40 / pb_ratio=1.30 / aq=1:1.00
Language : English
Default : Yes
Forced : No

Audio #1
ID : 2
Format : AC-3
Format/Info : Audio Coding 3
Mode extension : CM (complete main)
Format settings, Endianness : Big
Codec ID : A_AC3
Duration : 2 h 28 min
Bit rate mode : Constant
Bit rate : 448 kb/s
Channel(s) : 6 channels
Channel positions : Front: L C R, Side: L R, LFE
Sampling rate : 48.0 kHz
Frame rate : 31.250 FPS (1536 spf)
Bit depth : 16 bits
Compression mode : Lossy
Delay relative to video : 1 s 500 ms
Stream size : 476 MiB (4%)
Title : Català [AC3 5.1]
Language : Catalan
Default : Yes
Forced : No

Audio #2
ID : 3
Format : AC-3
Format/Info : Audio Coding 3
Mode extension : CM (complete main)
Format settings, Endianness : Big
Codec ID : A_AC3
Duration : 2 h 28 min
Bit rate mode : Constant
Bit rate : 640 kb/s
Channel(s) : 6 channels
Channel positions : Front: L C R, Side: L R, LFE
Sampling rate : 48.0 kHz
Frame rate : 31.250 FPS (1536 spf)
Bit depth : 16 bits
Compression mode : Lossy
Stream size : 680 MiB (5%)
Title : English [AC3 5.1]
Language : English
Default : No
Forced : No

Text #1
ID : 4
Format : UTF-8
Codec ID : S_TEXT/UTF8
Codec ID/Info : UTF-8 Plain Text
Title : Català [forçats]
Language : Catalan
Default : Yes
Forced : Yes

Text #2
ID : 5
Format : UTF-8
Codec ID : S_TEXT/UTF8
Codec ID/Info : UTF-8 Plain Text
Title : Català
Language : Catalan
Default : No
Forced : No

Text #3
ID : 6
Format : UTF-8
Codec ID : S_TEXT/UTF8
Codec ID/Info : UTF-8 Plain Text
Title : English
Language : English
Default : No
Forced : No
espolet96 l’ha editat per darrera vegada el dia: ds. jul. 22, 2017 17:17, en total s’ha editat 4 vegades.




XBG5
Entrades: 36
Membre des de: dl. ago. 22, 2016 22:18
Status: Desconnectat

Re: [DD] Pulp Fiction (1994) [BD 1080p]

#2

Entrada Autor: XBG5 » ds. jul. 08, 2017 21:31

Moltes gràcies!


Autor del tema
espolet96
Entrades: 22
Membre des de: dl. des. 19, 2011 21:16
Status: Desconnectat

Re: [DD] Pulp Fiction (1994) [BD 1080p]

#3

Entrada Autor: espolet96 » ds. jul. 08, 2017 21:40

XBG5 ha escrit:Moltes gràcies!
De res :) Gràcies per comentar.


xagasa
Entrades: 55
Membre des de: dj. des. 19, 2013 12:45
Status: Desconnectat

Re: [DD/ed2k] Pulp Fiction (1994) [BDrip HD 1080p]

#4

Entrada Autor: xagasa » dj. jul. 20, 2017 23:32

Bones. Gran pelicula. Però el servidor mega limita les descarregues a 6 gb. ¿Et faria res pujarla en 2 o 3 enllaços per facilitar la descarrega?
Al ser un arxiu que supera els 6 gb en versio gratuita impedeix descarregarla. Salutacions i bona feina.


Autor del tema
espolet96
Entrades: 22
Membre des de: dl. des. 19, 2011 21:16
Status: Desconnectat

Re: [DD/ed2k] Pulp Fiction (1994) [BDrip HD 1080p]

#5

Entrada Autor: espolet96 » ds. jul. 22, 2017 14:48

xagasa ha escrit:Bones. Gran pelicula. Però el servidor mega limita les descarregues a 6 gb. ¿Et faria res pujarla en 2 o 3 enllaços per facilitar la descarrega?
Al ser un arxiu que supera els 6 gb en versio gratuita impedeix descarregarla. Salutacions i bona feina.
Diria que si te la descarregues mitjançant el JDownloader te la pots baixar tota de cop (en el cas que no t'hagis baixat res abans). Per eMule no tindràs cap problema si el tens ben configurat :)

Podria penjar-la amb parts però prova això primer. (ara et contesto el privat)

EDIT: Ara està penjada en 3 parts, dues de 5 GB i l'altre de 2.61 GB.


xagasa
Entrades: 55
Membre des de: dj. des. 19, 2013 12:45
Status: Desconnectat

Re: [DD/ed2k] Pulp Fiction (1994) [BDrip HD 1080p]

#6

Entrada Autor: xagasa » ds. jul. 22, 2017 19:46

Ok genial. Moltes gràcies.

Respon