[ed2k] Batman: La Lego pel·lícula

Pel·lícules, cicles, etc.

Moderadors: Oliana, Petiso

Avatar de l’usuari
r5004
Entrades: 11882
Membre des de: dc. nov. 01, 2006 8:08

[ed2k] Batman: La Lego pel·lícula

EntradaAutor: r5004 » dl. juny 19, 2017 19:43

Batman: La Lego pel·lícula

Imatge
Imdb Viquipèdia

Imatge


gencat.cat ha escrit:Batman. La LEGO® pel·lícula

Any 2017
Títol original: The LEGO Batman Movie
Direcció: Chris McKay
País: Estats Units i Dinamarca
Idioma original: Anglès

Amb el mateix esperit irreverent i divertit de La LEGO pel·lícula (2014), arriba aquesta nova aventura protagonitzada pel personatge que es considerava el líder del grup: LEGO Batman. Gotham City està amenaçada per diversos criminals, entre els quals destaca el Joker. El nostre heroi ha de lluitar no només amb els criminals, sinó també amb la responsabilitat de criar, ell sol, un nen.


Dades de la publicació:
Vídeo BDrip x264 1280x528 a 2300 Kbits/s Qf=0,142 (70% del test de compressibilitat)
Àudio BD Ac3 448kbits/s 5.1 (Català) (sense re-compressió)
Àudio BD Ac3 448kbits/s 5.1 (Euskera) (sense re-compressió)
Àudio BD Ac3 448kbits/s 5.1 (Anglès) (sense re-compressió)
Subtítols en anglès
Arxiu de 2,66 Gigues (2857692899 bytes)
1 hora, 44 minuts i 30 segons
Hash Md5: ceb0170528353812c59417d2e9d828c9
MediaInfo
General
Unique ID : 224170956543340194614938127437059612274 (0xA8A5C17B3FA64A21B1F30EFA1B145E72)
Complete name : D:\Lego batman\rip\Batman; La Lego pel·lícula (BDrip 720p català - euskera - anglès per r5004) (TotsRucs.cat).mkv
Format : Matroska
Format version : Version 4 / Version 2
File size : 2.66 GiB
Duration : 1 h 44 min
Overall bit rate : 3 646 kb/s
Encoded date : UTC 2017-06-19 09:30:31
Writing application : mkvmerge v12.0.0 ('Trust / Lust') 64bit
Writing library : libebml v1.3.4 + libmatroska v1.4.5

Video
ID : 1
Format : AVC
Format/Info : Advanced Video Codec
Format profile : High@L4.1
Format settings, CABAC : Yes
Format settings, ReFrames : 12 frames
Codec ID : V_MPEG4/ISO/AVC
Duration : 1 h 44 min
Bit rate : 2 300 kb/s
Width : 1 280 pixels
Height : 528 pixels
Display aspect ratio : 2.40:1
Frame rate mode : Constant
Frame rate : 23.976 (24000/1001) FPS
Color space : YUV
Chroma subsampling : 4:2:0
Bit depth : 8 bits
Scan type : Progressive
Bits/(Pixel*Frame) : 0.142
Stream size : 1.68 GiB (63%)
Writing library : x264 core 150 r2833 df79067
Encoding settings : cabac=1 / ref=12 / deblock=1:1:1 / analyse=0x3:0x133 / me=umh / subme=9 / psy=1 / psy_rd=0.40:0.00 / mixed_ref=1 / me_range=16 / chroma_me=1 / trellis=2 / 8x8dct=1 / cqm=0 / deadzone=21,11 / fast_pskip=1 / chroma_qp_offset=-2 / threads=12 / lookahead_threads=1 / sliced_threads=0 / nr=0 / decimate=1 / interlaced=0 / bluray_compat=0 / constrained_intra=0 / bframes=5 / b_pyramid=2 / b_adapt=2 / b_bias=0 / direct=3 / weightb=1 / open_gop=0 / weightp=2 / keyint=240 / keyint_min=23 / scenecut=40 / intra_refresh=0 / rc_lookahead=60 / rc=2pass / mbtree=1 / bitrate=2300 / ratetol=1.0 / qcomp=0.60 / qpmin=0 / qpmax=69 / qpstep=4 / cplxblur=20.0 / qblur=0.5 / vbv_maxrate=62500 / vbv_bufsize=78125 / nal_hrd=none / filler=0 / ip_ratio=1.40 / aq=1:0.60
Default : Yes
Forced : No

Audio #1
ID : 2
Format : AC-3
Format/Info : Audio Coding 3
Mode extension : CM (complete main)
Format settings, Endianness : Big
Codec ID : A_AC3
Duration : 1 h 44 min
Bit rate mode : Constant
Bit rate : 448 kb/s
Channel(s) : 6 channels
Channel positions : Front: L C R, Side: L R, LFE
Sampling rate : 48.0 kHz
Frame rate : 31.250 FPS (1536 spf)
Bit depth : 16 bits
Compression mode : Lossy
Stream size : 335 MiB (12%)
Title : Català
Language : Catalan
Default : Yes
Forced : No

Audio #2
ID : 3
Format : AC-3
Format/Info : Audio Coding 3
Mode extension : CM (complete main)
Format settings, Endianness : Big
Codec ID : A_AC3
Duration : 1 h 44 min
Bit rate mode : Constant
Bit rate : 448 kb/s
Channel(s) : 6 channels
Channel positions : Front: L C R, Side: L R, LFE
Sampling rate : 48.0 kHz
Frame rate : 31.250 FPS (1536 spf)
Bit depth : 16 bits
Compression mode : Lossy
Stream size : 335 MiB (12%)
Title : Euskera
Language : Basque
Default : No
Forced : No

Audio #3
ID : 4
Format : AC-3
Format/Info : Audio Coding 3
Mode extension : CM (complete main)
Format settings, Endianness : Big
Codec ID : A_AC3
Duration : 1 h 44 min
Bit rate mode : Constant
Bit rate : 448 kb/s
Channel(s) : 6 channels
Channel positions : Front: L C R, Side: L R, LFE
Sampling rate : 48.0 kHz
Frame rate : 31.250 FPS (1536 spf)
Bit depth : 16 bits
Compression mode : Lossy
Stream size : 335 MiB (12%)
Title : English
Language : English
Default : No
Forced : No

Text
ID : 5
Format : UTF-8
Codec ID : S_TEXT/UTF8
Codec ID/Info : UTF-8 Plain Text
Duration : 1 h 38 min
Bit rate : 91 b/s
Count of elements : 2151
Stream size : 66.5 KiB (0%)
Title : English
Language : English
Default : No
Forced : No

Menu
00:00:00.000 : en:00:00:00.000
00:12:56.526 : en:00:12:56.526
00:22:57.793 : en:00:22:57.793
00:32:32.701 : en:00:32:32.701
00:40:58.539 : en:00:40:58.539
00:50:12.593 : en:00:50:12.593
01:00:26.456 : en:01:00:26.456
01:10:59.505 : en:01:10:59.505
01:19:30.975 : en:01:19:30.975
01:27:18.400 : en:01:27:18.400
01:36:27.156 : en:01:36:27.156
“Un home, i un poble, només pot pensar en la seva llengua, i si per dissort un dia arriba a pensar en la del veí, ja no és ell, sinó un altre, i de vegades ni això, car en el procés ho ha perdut tot."

SkywalkerAND
Entrades: 3
Membre des de: dg. oct. 24, 2010 18:32

Re: [ed2k] Batman: La Lego pel·lícula

EntradaAutor: SkywalkerAND » dt. juny 20, 2017 7:16

Moltes gràcies per aquesta versió amb aquesta qualitat de vídeo i de audio 5.1 :D :D :D


Torna a “Pel·lícules”

Qui està connectat

Usuaris navegant en aquest fòrum: No hi ha cap usuari registrat i 3 visitants