[ed2k] Mad Max: Fúria a la carretera

Pel·lícules, cicles, etc.

Moderadors: Oliana, Petiso

Avatar de l’usuari
r5004
Entrades: 11882
Membre des de: dc. nov. 01, 2006 8:08

[ed2k] Mad Max: Fúria a la carretera

EntradaAutor: r5004 » ds. juny 17, 2017 16:40

Mad Max: Fúria a la carretera

Imatge
Imdb

Imatge


ccma.cat ha escrit:Nominada a 10 premis Oscar, aquesta pel·lícula sobre un futur postapocalíptic és la quarta de la saga Mad Max i té com a protagonistes Tom Hardy i Charlize Theron, dos lluitadors rebels que miraran de recuperar l'ordre costi el que costi.

Títol original: "Mad Max: Fury Road"
Direcció: George Miller
Guió: Nick Lathouris, Bredan McCarthy, George Miller
Producció: Coproducció Austràlia-USA; Kennedy Miller Productions / Icon Productions
Intèrprets: Tom Hardy, Charlize Theron, Nicholas Hoult, Hugh Keays-Byrne, Angus Sampson, Zoë Kravitz, Rosie Huntington-Whiteley, Nathan Jones, Riley Keough, Abbey Lee, Courtney Eaton, Josh Helman, Megan Gale, Melissa Jaffer, Stephen Dunlevy
Fotografia: John Seale
Música: Junkie XL
Durada: 120 minuts

En una terra erma on la gasolina i l'aigua són béns escassos, en Max, un home perseguit pel seu passat turbulent, es veu arrossegat a lluitar al costat de la Imperator Furiosa, una dona que travessa el desert en un tràiler de guerra acompanyada d'un grup de dones que fugen del tirà Immortan Joe. Però el Senyor de la Guerra no està disposat a renunciar a les seves valuoses possessions i mobilitza totes les seves forces per recuperar-les costi el que costi.


Dades de la publicació:
Vídeo BDrip x264 1280x534 a 8085 Kbits/s
Àudio DVBrip Ac3 128kbits/s Estèreo (Català)
Àudio BDrip Ac3 640kbits/s 5.1 (Anglès)
Àudio DVBrip Ac3 96kbits/s Mono (Català audiodescripció)
Subtítols en anglès
Arxiu de 7,52 Gigues (8082112514 bytes)
2 hores i 23 segons
Hash Md5: 4b00e549c13c1a8b0b0a58d17a23ac4b
MediaInfo
General
Unique ID : 176459983449951724395121486084283171054 (0x84C0F4E4794C316FB55E4BBDD5A600EE)
Complete name : D:\Mad max\muntatge\Mad Max; Fúria a la carretera (BDrip 720p català - anglès -audiodescripció per r5004) (TotsRucs.cat).mkv
Format : Matroska
Format version : Version 4 / Version 2
File size : 7.53 GiB
Duration : 2 h 0 min
Overall bit rate : 8 951 kb/s
Encoded date : UTC 2017-06-17 10:04:39
Writing application : mkvmerge v12.0.0 ('Trust / Lust') 64bit
Writing library : libebml v1.3.4 + libmatroska v1.4.5

Video
ID : 1
Format : AVC
Format/Info : Advanced Video Codec
Format profile : High@L4.1
Format settings, CABAC : Yes
Format settings, ReFrames : 12 frames
Codec ID : V_MPEG4/ISO/AVC
Duration : 2 h 0 min
Bit rate : 8 085 kb/s
Width : 1 280 pixels
Height : 534 pixels
Display aspect ratio : 2.40:1
Frame rate mode : Constant
Frame rate : 23.976 (24000/1001) FPS
Color space : YUV
Chroma subsampling : 4:2:0
Bit depth : 8 bits
Scan type : Progressive
Bits/(Pixel*Frame) : 0.493
Stream size : 6.80 GiB (90%)
Title : Mad Max: Fúria a la carretera
Writing library : x264 core 142 r2431+42 c69a006 tMod [8-bit@all X86_64]
Encoding settings : cabac=1 / ref=12 / deblock=1:-3:-3 / analyse=0x3:0x133 / me=tesa / subme=11 / psy=1 / fade_compensate=0.00 / psy_rd=1.05:0.00 / mixed_ref=1 / me_range=32 / chroma_me=1 / trellis=2 / 8x8dct=1 / cqm=0 / deadzone=21,11 / fast_pskip=0 / chroma_qp_offset=-2 / threads=12 / lookahead_threads=2 / sliced_threads=0 / nr=0 / decimate=0 / interlaced=0 / bluray_compat=0 / constrained_intra=0 / fgo=0 / bframes=9 / b_pyramid=2 / b_adapt=2 / b_bias=0 / direct=3 / weightb=1 / open_gop=0 / weightp=2 / keyint=250 / keyint_min=23 / scenecut=40 / intra_refresh=0 / rc_lookahead=60 / rc=crf / mbtree=0 / crf=17.4000 / qcomp=0.70 / qpmin=0:0:0 / qpmax=69:69:69 / qpstep=4 / vbv_maxrate=62500 / vbv_bufsize=78125 / crf_max=0.0 / nal_hrd=none / filler=0 / ip_ratio=1.24 / pb_ratio=1.18 / aq=1:0.75 / aq-sensitivity=10.00 / aq-factor=1.00:1.00:1.00 / aq2=0 / aq3=0 / zones=133,1198,crf=16/3857,4903,crf=16/5664,7595,crf=16/8390,8580,crf=16/11111,11195,crf=16/16338,16390,crf=14/19789,20445,crf=16/20446,20559,crf=15.5/20560,21036,crf=16/28858,29225,crf=16/29977,30052,crf=16/30118,30365,crf=16/31164,31201,crf=16/32731,32897,crf=16/33504,43580,crf=16/56817,56868,crf=16/77320,87495,crf=16/87900,87915,crf=14/87938,88204,crf=14/92651,92848,crf=15.5/93175,93242,crf=15/93243,94263,crf=15.5/94264,94508,crf=14/94509,99043,crf=15.5/99044,99133,crf=15/99134,100677,crf=15.5/100678,100850,crf=15/100851,107952,crf=15.5/107953,107966,crf=14/108010,108030,crf=15/118150,118171,crf=15/118207,118368,crf=15/118369,123104,crf=15.5/130435,153620,crf=16.5/153621,153632,crf=15/153822,153866,crf=14/162510,162640,crf=15/162643,173187,crf=23
Default : Yes
Forced : No
Color range : Limited
Matrix coefficients : BT.709

Audio #1
ID : 2
Format : AC-3
Format/Info : Audio Coding 3
Mode extension : CM (complete main)
Format settings, Endianness : Big
Codec ID : A_AC3
Duration : 2 h 0 min
Bit rate mode : Constant
Bit rate : 128 kb/s
Channel(s) : 2 channels
Channel positions : Front: L R
Sampling rate : 48.0 kHz
Frame rate : 31.250 FPS (1536 spf)
Bit depth : 16 bits
Compression mode : Lossy
Stream size : 110 MiB (1%)
Title : Català
Language : Catalan
Default : Yes
Forced : No

Audio #2
ID : 3
Format : AC-3
Format/Info : Audio Coding 3
Mode extension : CM (complete main)
Format settings, Endianness : Big
Codec ID : A_AC3
Duration : 2 h 0 min
Bit rate mode : Constant
Bit rate : 640 kb/s
Channel(s) : 6 channels
Channel positions : Front: L C R, Side: L R, LFE
Sampling rate : 48.0 kHz
Frame rate : 31.250 FPS (1536 spf)
Bit depth : 16 bits
Compression mode : Lossy
Stream size : 551 MiB (7%)
Title : English
Language : English
Default : No
Forced : No

Audio #3
ID : 4
Format : AC-3
Format/Info : Audio Coding 3
Mode extension : CM (complete main)
Format settings, Endianness : Big
Codec ID : A_AC3
Duration : 2 h 0 min
Bit rate mode : Constant
Bit rate : 96.0 kb/s
Channel(s) : 1 channel
Channel positions : Front: C
Sampling rate : 48.0 kHz
Frame rate : 31.250 FPS (1536 spf)
Bit depth : 16 bits
Compression mode : Lossy
Stream size : 82.7 MiB (1%)
Title : Català audiodescripció
Language : Catalan
Default : No
Forced : No

Text
ID : 5
Format : UTF-8
Codec ID : S_TEXT/UTF8
Codec ID/Info : UTF-8 Plain Text
Duration : 1 h 51 min
Bit rate : 24 b/s
Count of elements : 908
Stream size : 19.7 KiB (0%)
Title : English
Language : English
Default : No
Forced : No

Menu
00:00:00.000 : en:00:00:00.000
00:10:42.475 : en:00:10:42.475
00:19:06.437 : en:00:19:06.437
00:30:12.310 : en:00:30:12.310
00:42:55.615 : en:00:42:55.615
00:49:33.345 : en:00:49:33.345
00:59:55.175 : en:00:59:55.175
01:13:02.545 : en:01:13:02.545
01:22:08.924 : en:01:22:08.924
01:30:02.731 : en:01:30:02.731
01:40:39.867 : en:01:40:39.867
01:49:12.546 : en:01:49:12.546
01:53:06.279 : en:01:53:06.279
“Un home, i un poble, només pot pensar en la seva llengua, i si per dissort un dia arriba a pensar en la del veí, ja no és ell, sinó un altre, i de vegades ni això, car en el procés ho ha perdut tot."

XBG5
Entrades: 21
Membre des de: dl. ago. 22, 2016 22:18

Re: [ed2k] Mad Max: Fúria a la carretera

EntradaAutor: XBG5 » ds. juny 17, 2017 20:42

Moltes gràcies!

Avatar de l’usuari
Adrià05
Entrades: 995
Membre des de: dt. feb. 03, 2015 20:06
Contacta:

Re: [ed2k] Mad Max: Fúria a la carretera

EntradaAutor: Adrià05 » ds. juny 17, 2017 21:15

Moltes gràcies! Són els tipus de pel·lícules que val la pena doblar-les.

Avatar de l’usuari
r5004
Entrades: 11882
Membre des de: dc. nov. 01, 2006 8:08

Re: [ed2k] Mad Max: Fúria a la carretera

EntradaAutor: r5004 » dg. juny 18, 2017 7:22

De res. :D
Sembla que hi ha cert interès en aquesta pel·li; porto 21,8 gigues pujats amb un ratio de 2,9... com a mínim hi ha tres persones interessades... :mrgreen: :mrgreen:
“Un home, i un poble, només pot pensar en la seva llengua, i si per dissort un dia arriba a pensar en la del veí, ja no és ell, sinó un altre, i de vegades ni això, car en el procés ho ha perdut tot."

aptos
Entrades: 12
Membre des de: dc. oct. 24, 2007 10:32
Contacta:

Re: [ed2k] Mad Max: Fúria a la carretera

EntradaAutor: aptos » dg. juny 18, 2017 11:35

Moltes gracies, ideal per fer un avchd.
Salutacions.

godowk
Entrades: 300
Membre des de: dg. gen. 27, 2013 13:23

Re: [ed2k] Mad Max: Fúria a la carretera

EntradaAutor: godowk » dg. juny 18, 2017 22:04

Moltes gràcies!

d1k2
Entrades: 25
Membre des de: ds. maig 24, 2014 9:07

Re: [ed2k] Mad Max: Fúria a la carretera

EntradaAutor: d1k2 » dl. juny 19, 2017 20:32

moltes gràcies r5004. Personalment m'hauria agradat més un arxiu de 1,5 o 2 gigues, perquè els meus reproductors van més lleugers. Però moltes gràcies igualment.

pikapoll
Entrades: 27
Membre des de: ds. gen. 02, 2016 22:09

Re: [ed2k] Mad Max: Fúria a la carretera

EntradaAutor: pikapoll » dv. juny 23, 2017 21:30

Gran aportació!! Moltes gracies!!


Torna a “Pel·lícules”

Qui està connectat

Usuaris navegant en aquest fòrum: No hi ha cap usuari registrat i 3 visitants