[ed2k] Jackie

Pel·lícules, cicles, etc.

Moderadors: Oliana, Petiso

Respon
Avatar de l’usuari

Autor del tema
r5004
Entrades: 12145
Membre des de: dc. nov. 01, 2006 8:08
Status: Desconnectat

[ed2k] Jackie

#1

Entrada Autor: r5004 » dt. maig 16, 2017 19:41

Jackie

Imatge
Imdb

Imatge
ccma.cat ha escrit:La Sofie i la Daan són dues bessones filles d'un parella d'homes gais que viuen a Amsterdam. Les van tenir perquè una hippy americana els va fer de mare de lloguer. Un dia, quan les dues germanes ja tenen trenta anys, reben una trucada dels Estats Units dient-los que la seva mare, la Jackie, ha tingut un accident i no té família perquè s'ocupi de portar-la a un centre de recuperació. La Sofie, que està molt enfeinada canviant l'orientació de la revista on treballa, i la Daan hi van. Un cop allà, els costa relacionar-se amb la seva mare biològica i, després de diverses vicissituds, la Sofie, que havia dit que treballaria des de casa i no que se n'anava als Estats Units, perd la feina. A partir d'aquí la història fa una sèrie de girs inesperats.

JACKIE (Jackie)

Direcció: Antoinette Beumer
Intèrprets: Carice van Houten, Jelka van Houten, Holly Hunter, Valerie Adams, Luis Bordonada, Chadwick Brown, Jacob Browne, Hayo Bruins, Edward A. Duran, Bradford Fairbanks, Lynda Fazio, Joe Freeman, Howe Gelb, Pam Gow, Bryan Head, Paul Hoes, Karen M. Hudson, Kenneth Miller, Robyn Reede
Guió: Marnie Blok i Karin van Holst Pellekaan
Música: Melcher Meirmans, Merlijn Snitker i Chrisnanne Wiegel
Fotografia: Danny Elsen
Idioma versió original: anglès
Producció: Eyeworks Film TV, Drama Inspire Pictures i Indieproduction, 2012 (Holanda)
Durada: 95 minuts
Dades de la publicació:
Vídeo HDTVrip x264 1280x544 a 2550 Kbits/s Qf=0,146 (70% del test de compressibilitat)
Àudio HDTVrip Ac3 128kbits/s Estèreo (Català)
Àudio HDTVrip Ac3 96kbits/s Mono (Anglès)
Subtítols en català
Arxiu de 1,81 Gigues (1952091384 bytes)
1 hora, 33 minuts i 45 segons
Hash Md5: 8a4f7b4c094b85bf6fac7958016f519e
MediaInfo
General
Unique ID : 234236183098251037570726909296101346100 (0xB0383F76F34E70EBBB1CD25C96D4CB34)
Complete name : D:\Jackie\Jackie (HDTVrip 720p català - anglès per r5004) (TotsRucs.cat).mkv
Format : Matroska
Format version : Version 2
File size : 1.82 GiB
Duration : 1 h 33 min
Overall bit rate : 2 776 kb/s
Encoded date : UTC 2017-05-15 18:12:42
Writing application : mkvmerge v10.0.0 ('To Drown In You') 64bit
Writing library : libebml v1.3.4 + libmatroska v1.4.5

Video
ID : 1
Format : AVC
Format/Info : Advanced Video Codec
Format profile : High@L4.1
Format settings, CABAC : Yes
Format settings, ReFrames : 8 frames
Codec ID : V_MPEG4/ISO/AVC
Duration : 1 h 33 min
Bit rate : 2 550 kb/s
Width : 1 280 pixels
Height : 544 pixels
Display aspect ratio : 2.35:1
Frame rate mode : Constant
Frame rate : 25.000 FPS
Color space : YUV
Chroma subsampling : 4:2:0
Bit depth : 8 bits
Scan type : Progressive
Bits/(Pixel*Frame) : 0.146
Stream size : 1.67 GiB (92%)
Writing library : x264 core 148 r2744 b97ae06
Encoding settings : cabac=1 / ref=8 / deblock=1:-1:-1 / analyse=0x3:0x133 / me=umh / subme=9 / psy=1 / psy_rd=1.00:0.15 / mixed_ref=1 / me_range=16 / chroma_me=1 / trellis=2 / 8x8dct=1 / cqm=0 / deadzone=21,11 / fast_pskip=1 / chroma_qp_offset=-3 / threads=12 / lookahead_threads=1 / sliced_threads=0 / nr=0 / decimate=1 / interlaced=0 / bluray_compat=0 / constrained_intra=0 / bframes=3 / b_pyramid=2 / b_adapt=2 / b_bias=0 / direct=3 / weightb=1 / open_gop=0 / weightp=2 / keyint=250 / keyint_min=25 / scenecut=40 / intra_refresh=0 / rc_lookahead=60 / rc=2pass / mbtree=1 / bitrate=2550 / ratetol=1.0 / qcomp=0.60 / qpmin=0 / qpmax=69 / qpstep=4 / cplxblur=20.0 / qblur=0.5 / vbv_maxrate=62500 / vbv_bufsize=78125 / nal_hrd=none / filler=0 / ip_ratio=1.40 / aq=1:1.00
Language : English
Default : Yes
Forced : No

Audio #1
ID : 2
Format : AC-3
Format/Info : Audio Coding 3
Mode extension : CM (complete main)
Format settings, Endianness : Big
Codec ID : A_AC3
Duration : 1 h 33 min
Bit rate mode : Constant
Bit rate : 128 kb/s
Channel(s) : 2 channels
Channel positions : Front: L R
Sampling rate : 48.0 kHz
Frame rate : 31.250 FPS (1536 spf)
Bit depth : 16 bits
Compression mode : Lossy
Stream size : 85.8 MiB (5%)
Language : Catalan
Default : Yes
Forced : No

Audio #2
ID : 3
Format : AC-3
Format/Info : Audio Coding 3
Mode extension : CM (complete main)
Format settings, Endianness : Big
Codec ID : A_AC3
Duration : 1 h 33 min
Bit rate mode : Constant
Bit rate : 96.0 kb/s
Channel(s) : 1 channel
Channel positions : Front: C
Sampling rate : 48.0 kHz
Frame rate : 31.250 FPS (1536 spf)
Bit depth : 16 bits
Compression mode : Lossy
Stream size : 64.4 MiB (3%)
Language : English
Default : No
Forced : No

Text
ID : 4
Format : UTF-8
Codec ID : S_TEXT/UTF8
Codec ID/Info : UTF-8 Plain Text
Duration : 1 h 30 min
Bit rate : 40 b/s
Count of elements : 797
Stream size : 27.0 KiB (0%)
Title : Català
Language : Catalan
Default : No
Forced : No


Imatge


Avatar de l’usuari

naroatna
Entrades: 19056
Membre des de: ds. des. 30, 2006 23:43
Ubicació: Figueres - Alt Empordà
Status: Desconnectat

Re: [ed2k] Jackie

#2

Entrada Autor: naroatna » dt. maig 16, 2017 20:32

Moooooooooltes gràciessssssss r5004 !!

(K) (K) (K)
Imatge

Moltes gràcies!

Respon