[ed2k] Bits

Còmics, llibres, jocs, etc.

Moderador: Petiso

Avatar de l’usuari
r5004
Entrades: 11561
Membre des de: dc. nov. 01, 2006 8:08

[ed2k] Bits

EntradaAutor: r5004 » dl. des. 26, 2016 14:04

Bits

Imatge

Imatge


ccma.cat ha escrit:BITS
Guió,direcció i Producció: Tricicle
Actors: Joan Gràcia, Paco Mir i Carles Sans
Música: Pere Bardagí
Bits és el vuitè espectacle de Tricicle. I s'anomena Bits perquè el punt de partida és el bit, aquesta intangible unitat d'informació que alimenta el món digital. Tricicle són Bits i com a Bits, en un mil·lisegon o menys, passen d'un esquetx a l'altre, a la velocitat del clic d'un ratolí virtual que es mou per una pantalla gegant que esdevé un immens portàtil. Bits és, segons Joan Gràcia, Paco Mir i Carles Sans, un espectacle digital en codi de gags trinari.


Dades de la publicació:
Vídeo HDTVrip x264 1280x720 a 3000 Kbits/s Qf=0,130 (70% del test de compressibilitat)
Àudio HDTVrip Ac3 128kbits/s Estèreo
Arxiu de 1,79 Gigues (1933155462 bytes)
1 hora, 22 minuts i 21 segons
Hash Md5: d51f50e70715f53c8a03d580ff9e276e
MediaInfo
General
Unique ID : 215126754755214724129165363548590076149 (0xA1D7E7E7E5337984B9C2A4F7B86670F5)
Complete name : D:\Bits\Bits (HDTVrip 720p català per r5004) (TotsRucs.cat).mkv
Format : Matroska
Format version : Version 2
File size : 1.80 GiB
Duration : 1h 22mn
Overall bit rate : 3 130 Kbps
Encoded date : UTC 2016-12-25 22:42:08
Writing application : mkvmerge v8.5.2 ('Crosses') 32bit
Writing library : libebml v1.3.3 + libmatroska v1.4.4
DURATION : 01:22:21.024000000
NUMBER_OF_FRAMES : 154407
NUMBER_OF_BYTES : 79056384
_STATISTICS_WRITING_APP : mkvmerge v8.5.2 ('Crosses') 32bit
_STATISTICS_WRITING_DATE_UTC : 2016-12-25 22:42:08
_STATISTICS_TAGS : BPS DURATION NUMBER_OF_FRAMES NUMBER_OF_BYTES

Video
ID : 1
Format : AVC
Format/Info : Advanced Video Codec
Format profile : High@L4.1
Format settings, CABAC : Yes
Format settings, ReFrames : 8 frames
Codec ID : V_MPEG4/ISO/AVC
Duration : 1h 22mn
Bit rate : 3 000 Kbps
Width : 1 280 pixels
Height : 720 pixels
Display aspect ratio : 16:9
Frame rate mode : Constant
Frame rate : 25.000 fps
Color space : YUV
Chroma subsampling : 4:2:0
Bit depth : 8 bits
Scan type : Progressive
Bits/(Pixel*Frame) : 0.130
Stream size : 1.69 GiB (94%)
Writing library : x264 core 148 r2638 7599210
Encoding settings : cabac=1 / ref=8 / deblock=1:-1:-1 / analyse=0x3:0x133 / me=umh / subme=9 / psy=1 / psy_rd=1.00:0.15 / mixed_ref=1 / me_range=16 / chroma_me=1 / trellis=2 / 8x8dct=1 / cqm=0 / deadzone=21,11 / fast_pskip=1 / chroma_qp_offset=-3 / threads=12 / lookahead_threads=1 / sliced_threads=0 / nr=0 / decimate=1 / interlaced=0 / bluray_compat=0 / constrained_intra=0 / bframes=3 / b_pyramid=2 / b_adapt=2 / b_bias=0 / direct=3 / weightb=1 / open_gop=0 / weightp=2 / keyint=250 / keyint_min=25 / scenecut=40 / intra_refresh=0 / rc_lookahead=60 / rc=2pass / mbtree=1 / bitrate=3000 / ratetol=1.0 / qcomp=0.60 / qpmin=0 / qpmax=69 / qpstep=4 / cplxblur=20.0 / qblur=0.5 / vbv_maxrate=62500 / vbv_bufsize=78125 / nal_hrd=none / filler=0 / ip_ratio=1.40 / aq=1:1.00
Language : English
Default : Yes
Forced : No
DURATION : 01:22:21.200000000
NUMBER_OF_FRAMES : 123530
NUMBER_OF_BYTES : 1852993888
_STATISTICS_WRITING_APP : mkvmerge v8.5.2 ('Crosses') 32bit
_STATISTICS_WRITING_DATE_UTC : 2016-12-25 22:42:08
_STATISTICS_TAGS : BPS DURATION NUMBER_OF_FRAMES NUMBER_OF_BYTES

Audio
ID : 2
Format : AC-3
Format/Info : Audio Coding 3
Mode extension : CM (complete main)
Format settings, Endianness : Big
Codec ID : A_AC3
Duration : 1h 22mn
Bit rate mode : Constant
Bit rate : 128 Kbps
Channel(s) : 2 channels
Channel positions : Front: L R
Sampling rate : 48.0 KHz
Compression mode : Lossy
Stream size : 75.4 MiB (4%)
Language : Catalan
Default : Yes
Forced : No
"Deixeu que Catalunya sigui independent, i serà aleshores que posarem de bell nou la bandera de les quatre barres, la bandera catalana sense estels, sense blaus, però amb tots els honors. Ben alta, ben dreta i ben sola!"

Suzume
Entrades: 149
Membre des de: dt. jul. 01, 2008 21:29

Re: [ed2k] Bits

EntradaAutor: Suzume » dv. des. 30, 2016 11:35

Moltes gràcies :D


Torna a “Altres”

Qui està connectat

Usuaris navegant en aquest fòrum: No hi ha cap usuari registrat i 4 visitants