[ed2k] Roig. Textos i música sobre Montserrat Roig

Música, concerts, videoclips, sessions,...

Moderadors: xordi, mario1911

Avatar de l’usuari
r5004
Entrades: 11882
Membre des de: dc. nov. 01, 2006 8:08

[ed2k] Roig. Textos i música sobre Montserrat Roig

EntradaAutor: r5004 » dc. juny 14, 2017 15:30

Roig. Textos i música sobre Montserrat Roig

Imatge

Imatge


L'epg ha escrit:ROIG és un Recital i concert creat en commemoració del 25è aniversari de la mort de l'escriptora i periodista Montserrat Roig, a més de fer divulgació de la seva obra, també hi ha records, olors, colors i emocions de la vida de l'insigne escriptora. Un passeig emocionant i intens que no us deixarà indiferent i que us farà venir ganes de llegir més la Montserrat Roig. Amb Mònica Lucchetti narració, Tànit Navarro cant i Carles Beltran música.


Dades de la publicació:
Vídeo DVBrip Xvid 704x384 a 1200 Kbits/s Qf=0,182 (60% del test de compressibilitat)
Àudio DVB Mp2 192kbits/s Estèreo (sense re-compressió)
673 Megues (706410014 bytes)
1 hora, 7 minuts i 26 segons
Hash Md5: bdc203a52eb9af62c1b73c1a04a840b5
MediaInfo
General
Complete name : D:\Roig\Roig. Textos i música sobre Montserrat Roig (DVBrip català) per r5004 (totsrucs.cat).avi
Format : AVI
Format/Info : Audio Video Interleave
File size : 674 MiB
Duration : 1 h 7 min
Overall bit rate : 1 397 kb/s

Video
ID : 0
Format : MPEG-4 Visual
Format profile : Advanced Simple@L5
Format settings, BVOP : 2
Format settings, QPel : No
Format settings, GMC : No warppoints
Format settings, Matrix : Default (H.263)
Codec ID : XVID
Codec ID/Hint : XviD
Duration : 1 h 7 min
Bit rate : 1 199 kb/s
Width : 704 pixels
Height : 384 pixels
Display aspect ratio : 1.85:1
Frame rate : 25.000 FPS
Color space : YUV
Chroma subsampling : 4:2:0
Bit depth : 8 bits
Scan type : Progressive
Compression mode : Lossy
Bits/(Pixel*Frame) : 0.177
Stream size : 578 MiB (86%)
Writing library : XviD 67

Audio
ID : 1
Format : MPEG Audio
Format version : Version 1
Format profile : Layer 2
Codec ID : 50
Duration : 1 h 7 min
Bit rate mode : Constant
Bit rate : 192 kb/s
Channel(s) : 2 channels
Sampling rate : 48.0 kHz
Compression mode : Lossy
Stream size : 92.6 MiB (14%)
Alignment : Aligned on interleaves
Interleave, duration : 160 ms (4.00 video frames)
Interleave, preload duration : 216 ms
Title : cat
“Un home, i un poble, només pot pensar en la seva llengua, i si per dissort un dia arriba a pensar en la del veí, ja no és ell, sinó un altre, i de vegades ni això, car en el procés ho ha perdut tot."

Torna a “Música”

Qui està connectat

Usuaris navegant en aquest fòrum: No hi ha cap usuari registrat i 2 visitants