[ed2k] Raimon: Comiat al Palau (28-05-2017)

Música, concerts, videoclips, sessions,...

Moderadors: xordi, mario1911

Avatar de l’usuari
r5004
Entrades: 11882
Membre des de: dc. nov. 01, 2006 8:08

[ed2k] Raimon: Comiat al Palau (28-05-2017)

EntradaAutor: r5004 » dt. maig 30, 2017 20:03

Raimon: Comiat al Palau (28-05-2017)

Imatge

Prèvia: Imatge

Concert: Imatge


ccma.cat ha escrit:Emissió en directe des del Palau de la Música Catalana, de la prèvia a l'últim recital de la carrera artística de Raimon.

ccma.cat ha escrit:Retransmissió des del Palau de la Música Catalana de l'últim recital de la carrera artística de Raimon.

Aquest és el repertori de cançons que Raimon va interpretar:
-A l'estiu quan son les nou
-Si miraves l'aigua
-Punxa de temps
-Mentre s'acosta la nit
-No el coneixia de res
-País Basc
-Així com cell qui es veu prop de la mort (Ausiàs March)
-Si com lo taur (Ausiàs March)
-La balada de la garsa i de l'esmerla (Joan Roís de Corella)
-Bella de vos só enamorós (Joan Timoneda)
-Elogi dels diners (Anselm Turmeda)
-Hauries de fer com si
-He passejat per València sol
-Soliloqui solipsista
-Molt lluny
-La nit
-Indesinenter (Salvador Espriu)
-Petita cançó de la teva mort (Salvador Espriu)
-La mar respira calma
-Al meu país la pluja
-A Joan Miró
-Quan jo vaig nàixer
-18 de maig a "La Villa"
-Amanda (Víctor Jara)
-T'he conegut sempre igual
-I nosaltres amb ell
-Napolitana per a tu
-Parlant-me de tu
-Com un puny

Bisos
-Veles e vents (Ausiàs March)
-He mirat aquesta terra (Salvador Espriu)
-Jo vinc d'un silenci
-Diguem no
-Al vent


Dades de la publicació: (Prèvia)
Vídeo HDTVrip x264 1280x720 a 3250 Kbits/s Qf=0,141 (70% del test de compressibilitat)
Àudio HDTV E-Ac3 128kbits/s Estèreo (sense re-compressió)
Arxiu de 637 Megues (668100192 bytes)
26 minuts i 22 segons
Hash Md5: 86c4bfac6576997df05b78df3920eda0
MediaInfo
General
Unique ID : 186763397221382718585124171926531050645 (0x8C81526981E3C8B1BA05631342398C95)
Complete name : D:\Raimon\Previa\Raimon; Comiat al Palau (28-05-2017) (Prèvia) (HDTVrip 720p català per r5004) (TotsRucs.cat).mkv
Format : Matroska
Format version : Version 2
File size : 637 MiB
Duration : 26 min 21 s
Overall bit rate : 3 379 kb/s
Encoded date : UTC 2017-05-29 16:25:12
Writing application : mkvmerge v12.0.0 ('Trust / Lust') 64bit
Writing library : libebml v1.3.4 + libmatroska v1.4.5

Video
ID : 1
Format : AVC
Format/Info : Advanced Video Codec
Format profile : High@L4.1
Format settings, CABAC : Yes
Format settings, ReFrames : 8 frames
Codec ID : V_MPEG4/ISO/AVC
Duration : 26 min 21 s
Bit rate : 3 250 kb/s
Width : 1 280 pixels
Height : 720 pixels
Display aspect ratio : 16:9
Frame rate mode : Constant
Frame rate : 25.000 FPS
Color space : YUV
Chroma subsampling : 4:2:0
Bit depth : 8 bits
Scan type : Progressive
Bits/(Pixel*Frame) : 0.141
Stream size : 613 MiB (96%)
Writing library : x264 core 150 r2833 df79067
Encoding settings : cabac=1 / ref=8 / deblock=1:-1:-1 / analyse=0x3:0x133 / me=umh / subme=9 / psy=1 / psy_rd=1.00:0.15 / mixed_ref=1 / me_range=16 / chroma_me=1 / trellis=2 / 8x8dct=1 / cqm=0 / deadzone=21,11 / fast_pskip=1 / chroma_qp_offset=-3 / threads=12 / lookahead_threads=1 / sliced_threads=0 / nr=0 / decimate=1 / interlaced=0 / bluray_compat=0 / constrained_intra=0 / bframes=3 / b_pyramid=2 / b_adapt=2 / b_bias=0 / direct=3 / weightb=1 / open_gop=0 / weightp=2 / keyint=250 / keyint_min=25 / scenecut=40 / intra_refresh=0 / rc_lookahead=60 / rc=2pass / mbtree=1 / bitrate=3250 / ratetol=1.0 / qcomp=0.60 / qpmin=0 / qpmax=69 / qpstep=4 / cplxblur=20.0 / qblur=0.5 / vbv_maxrate=62500 / vbv_bufsize=78125 / nal_hrd=none / filler=0 / ip_ratio=1.40 / aq=1:1.00
Language : English
Default : Yes
Forced : No

Audio
ID : 2
Format : E-AC-3
Format/Info : Enhanced Audio Coding 3
Format settings, Endianness : Big
Codec ID : A_EAC3
Duration : 26 min 21 s
Bit rate mode : Constant
Bit rate : 128 kb/s
Channel(s) : 2 channels
Channel positions : Front: L R
Sampling rate : 48.0 kHz
Frame rate : 187.500 FPS (256 spf)
Compression mode : Lossy
Stream size : 24.1 MiB (4%)
Language : Catalan
Default : Yes
Forced : No


Dades de la publicació: (Concert)
Vídeo HDTVrip x264 1280x720 a 2800 Kbits/s Qf=0,122 (70% del test de compressibilitat)
Àudio HDTV E-Ac3 128kbits/s Estèreo (sense re-compressió)
Arxiu de 2,39 Gigues (2575773589 bytes)
1 hora, 57 minuts i 13 segons
Hash Md5: 9d399be19e46c222871a44f3fc9d4210
MediaInfo
General
Unique ID : 184844343779954563183520653337127681552 (0x8B0FB9C5BF713F1E9000A43C8EF9FE10)
Complete name : D:\Raimon\concert\Raimon; Comiat al Palau (28-05-2017) (HDTVrip 720p català per r5004) (TotsRucs.cat).mkv
Format : Matroska
Format version : Version 2
File size : 2.40 GiB
Duration : 1 h 57 min
Overall bit rate : 2 930 kb/s
Encoded date : UTC 2017-05-30 15:10:23
Writing application : mkvmerge v12.0.0 ('Trust / Lust') 64bit
Writing library : libebml v1.3.4 + libmatroska v1.4.5

Video
ID : 1
Format : AVC
Format/Info : Advanced Video Codec
Format profile : High@L4.1
Format settings, CABAC : Yes
Format settings, ReFrames : 8 frames
Codec ID : V_MPEG4/ISO/AVC
Duration : 1 h 57 min
Bit rate : 2 800 kb/s
Width : 1 280 pixels
Height : 720 pixels
Display aspect ratio : 16:9
Frame rate mode : Constant
Frame rate : 25.000 FPS
Color space : YUV
Chroma subsampling : 4:2:0
Bit depth : 8 bits
Scan type : Progressive
Bits/(Pixel*Frame) : 0.122
Stream size : 2.29 GiB (96%)
Writing library : x264 core 150 r2833 df79067
Encoding settings : cabac=1 / ref=8 / deblock=1:-1:-1 / analyse=0x3:0x133 / me=umh / subme=9 / psy=1 / psy_rd=1.00:0.15 / mixed_ref=1 / me_range=16 / chroma_me=1 / trellis=2 / 8x8dct=1 / cqm=0 / deadzone=21,11 / fast_pskip=1 / chroma_qp_offset=-3 / threads=12 / lookahead_threads=1 / sliced_threads=0 / nr=0 / decimate=1 / interlaced=0 / bluray_compat=0 / constrained_intra=0 / bframes=3 / b_pyramid=2 / b_adapt=2 / b_bias=0 / direct=3 / weightb=1 / open_gop=0 / weightp=2 / keyint=250 / keyint_min=25 / scenecut=40 / intra_refresh=0 / rc_lookahead=60 / rc=2pass / mbtree=1 / bitrate=2800 / ratetol=1.0 / qcomp=0.60 / qpmin=0 / qpmax=69 / qpstep=4 / cplxblur=20.0 / qblur=0.5 / vbv_maxrate=62500 / vbv_bufsize=78125 / nal_hrd=none / filler=0 / ip_ratio=1.40 / aq=1:1.00
Language : English
Default : Yes
Forced : No

Audio
ID : 2
Format : E-AC-3
Format/Info : Enhanced Audio Coding 3
Format settings, Endianness : Big
Codec ID : A_EAC3
Duration : 1 h 57 min
Bit rate mode : Constant
Bit rate : 128 kb/s
Channel(s) : 2 channels
Channel positions : Front: L R
Sampling rate : 48.0 kHz
Frame rate : 187.500 FPS (256 spf)
Compression mode : Lossy
Stream size : 107 MiB (4%)
Language : Catalan
Default : Yes
Forced : No
“Un home, i un poble, només pot pensar en la seva llengua, i si per dissort un dia arriba a pensar en la del veí, ja no és ell, sinó un altre, i de vegades ni això, car en el procés ho ha perdut tot."

Torna a “Música”

Qui està connectat

Usuaris navegant en aquest fòrum: No hi ha cap usuari registrat i 2 visitants