[ed2k] The Expendables (2010) R5 DVDRip XviD AC3-iMAGiNE

Links de material forani: sèries, pel·lícules, etc.
Respon

Autor del tema
DjWoolfy
Entrades: 15
Membre des de: dt. març 09, 2010 18:09
Status: Desconnectat

[ed2k] The Expendables (2010) R5 DVDRip XviD AC3-iMAGiNE

#1

Entrada Autor: DjWoolfy » dg. ago. 29, 2010 15:28

Imatge
Genre : Action / Adventure / Thriller

Tagline : Choose your weapon.

Plot : Barney Ross (Sylvester Stallone) is a man with nothing to lose. Fearless and void of emotion, he is the Leader, the Sage and the Strategist of this tight-knit band of men who live on the fringe. His only attachment is to his pickup truck, his seaplane and his team of loyal modern-day warriors. His is a true cynic who describes what he does as "removing those hard to get at stains". The team behind him is made up of Lee Christmas (Jason Statham), former SAS and a savant with anything that has a blade; Yin Yang (Jet Li), a master at close-quarter combat; Hale Caesar (Terry Crews), who has known Barney for ten years and is a long-barrel weapons specialist; Toll Road (Randy Couture), a skilled demolitions expert and considered the intellect of the group; and Gunnar Jensen (Dolph Lundgren), a combat veteran and an expert in precision sniping who struggles with his own demons.

Codi: Selecciona’ls tots

Ripper ...........:IMAGiNE                                  IMDB Rating.......:7.7/10                           
Video Codec.......:XVID                                     Release Date......:28/08/10
Audio Codec.......:AC3                                      Theatre Date......:13/08/10
Audio Bitrate.....:384                                      Runtime...........:1h 39mn
Subtitles.........:English                                  Language..........:ENGLISH
Resolution........:704 x 304                                IMDb URL..........:http://www.imdb.com/title/tt1320253/


DETAILS:

Video
Format                           : MPEG-4 Visual
Format profile                   : Streaming Video@L1
Format settings, BVOP            : Yes
Format settings, QPel            : No
Format settings, GMC             : No warppoints
Format settings, Matrix          : Default
Muxing mode                      : Packed bitstream
Codec ID                         : XVID
Codec ID/Hint                    : XviD
Duration                         : 1h 39mn
Bit rate                         : 1 577 Kbps
Width                            : 704 pixels
Height                           : 304 pixels
Display aspect ratio             : 2.35
Frame rate                       : 25.000 fps
Resolution                       : 24 bits
Colorimetry                      : 4:2:0
Scan type                        : Progressive
Bits/(Pixel*Frame)               : 0.295
Stream size                      : 1.09 GiB (80%)
Writing library                  : XviD 50

Audio
Format                           : AC-3
Format/Info                      : Audio Coding 3
Codec ID                         : 2000
Duration                         : 1h 39mn
Bit rate mode                    : Constant
Bit rate                         : 384 Kbps
Channel(s)                       : 2 channels
Channel positions                : L R
Sampling rate                    : 48.0 KHz
Stream size                      : 272 MiB (19%)
Alignment                        : Aligned on interleaves
Interleave, duration             : 40 ms (1.00 video frame)
Interleave, preload duration     : 512 ms




SOURCES:

VIDEO:The Expendables DVD9 R5.... A Good Friend Thanks Mate
AUDIO:The Expendables DVDR 2010-iND & about 30 seconds from the R5 to fill the gap

NOTES:

IMAGiNE bringing you another release..... The Expendables

Here we are with a nice R5 this time. Right first off we we're sent these
files this morning and have been working on a few other projects so sorry
for the delay on getting this out.
Work done on this one was we made some subs and hardcoded them for all non english parts....
Then we made it brighter,lowered the chroma,slight change in rgb colours,white balance,sharpen,crop and resize.
Audio is from the DVDSCR that was released by iND and about 30 seconds from the R5 beginning to make it full audio
as the iND release was missing audio for that part
[url]http://www.imdb.com/title/tt1320253/[/url]

Imatge

Imatge

Imatge

Imatge

Imatge

Imatge

Imatge

ed2k://|file|The.Expendables.2010.R5.DV ... 75FAA46342|/

ed2k://|file|The.Expendables.2010.R5.DV ... 04D1C4E268|/

hard coded subtitles for non english parts



Avatar de l’usuari

Petiso
Site Admin
Site Admin
Entrades: 15905
Membre des de: dv. oct. 06, 2006 13:13
Status: Desconnectat

Re: [ed2k] The Expendables (2010) R5 DVDRip XviD AC3-iMAGiNE

#2

Entrada Autor: Petiso » dg. ago. 29, 2010 15:41

I moved the thread to "Altres Rucs" because it doesn't have anything in Catalan (language or subtitles).

Bye and thanks !
Imatge Imatge

Respon